  0
SECTION
  2
HEADER
  9
$ACADVER
  1
AC1015
  9
$ACADMAINTVER
 70
     6
  9
$DWGCODEPAGE
  3
ANSI_1252
  9
$INSBASE
 10
0.0
 20
0.0
 30
0.0
  9
$EXTMIN
 10
-594.0
 20
0.0
 30
0.0
  9
$EXTMAX
 10
0.0
 20
420.0
 30
0.0
  9
$LIMMIN
 10
0.0
 20
0.0
  9
$LIMMAX
 10
12.0
 20
9.0
  9
$ORTHOMODE
 70
     0
  9
$REGENMODE
 70
     1
  9
$FILLMODE
 70
     1
  9
$QTEXTMODE
 70
     0
  9
$MIRRTEXT
 70
     1
  9
$LTSCALE
 40
1.0
  9
$ATTMODE
 70
     1
  9
$TEXTSIZE
 40
0.2
  9
$TRACEWID
 40
0.05
  9
$TEXTSTYLE
  7
Standard
  9
$CLAYER
  8
0
  9
$CELTYPE
  6
ByLayer
  9
$CECOLOR
 62
   256
  9
$CELTSCALE
 40
1.0
  9
$DISPSILH
 70
     0
  9
$DIMSCALE
 40
1.0
  9
$DIMASZ
 40
0.18
  9
$DIMEXO
 40
0.0625
  9
$DIMDLI
 40
0.38
  9
$DIMRND
 40
0.0
  9
$DIMDLE
 40
0.0
  9
$DIMEXE
 40
0.18
  9
$DIMTP
 40
0.0
  9
$DIMTM
 40
0.0
  9
$DIMTXT
 40
0.18
  9
$DIMCEN
 40
0.09
  9
$DIMTSZ
 40
0.0
  9
$DIMTOL
 70
     0
  9
$DIMLIM
 70
     0
  9
$DIMTIH
 70
     1
  9
$DIMTOH
 70
     1
  9
$DIMSE1
 70
     0
  9
$DIMSE2
 70
     0
  9
$DIMTAD
 70
     0
  9
$DIMZIN
 70
     0
  9
$DIMBLK
  1

  9
$DIMASO
 70
     1
  9
$DIMSHO
 70
     1
  9
$DIMPOST
  1

  9
$DIMAPOST
  1

  9
$DIMALT
 70
     0
  9
$DIMALTD
 70
     2
  9
$DIMALTF
 40
25.4
  9
$DIMLFAC
 40
1.0
  9
$DIMTOFL
 70
     0
  9
$DIMTVP
 40
0.0
  9
$DIMTIX
 70
     0
  9
$DIMSOXD
 70
     0
  9
$DIMSAH
 70
     0
  9
$DIMBLK1
  1

  9
$DIMBLK2
  1

  9
$DIMSTYLE
  2
Standard
  9
$DIMCLRD
 70
     0
  9
$DIMCLRE
 70
     0
  9
$DIMCLRT
 70
     0
  9
$DIMTFAC
 40
1.0
  9
$DIMGAP
 40
0.09
  9
$DIMJUST
 70
     0
  9
$DIMSD1
 70
     0
  9
$DIMSD2
 70
     0
  9
$DIMTOLJ
 70
     1
  9
$DIMTZIN
 70
     0
  9
$DIMALTZ
 70
     0
  9
$DIMALTTZ
 70
     0
  9
$DIMUPT
 70
     0
  9
$DIMDEC
 70
     4
  9
$DIMTDEC
 70
     4
  9
$DIMALTU
 70
     2
  9
$DIMALTTD
 70
     2
  9
$DIMTXSTY
  7
Standard
  9
$DIMAUNIT
 70
     0
  9
$DIMADEC
 70
     0
  9
$DIMALTRND
 40
0.0
  9
$DIMAZIN
 70
     0
  9
$DIMDSEP
 70
    46
  9
$DIMATFIT
 70
     3
  9
$DIMFRAC
 70
     0
  9
$DIMLDRBLK
  1

  9
$DIMLUNIT
 70
     2
  9
$DIMLWD
 70
    -2
  9
$DIMLWE
 70
    -2
  9
$DIMTMOVE
 70
     0
  9
$LUNITS
 70
     2
  9
$LUPREC
 70
     4
  9
$SKETCHINC
 40
0.1
  9
$FILLETRAD
 40
0.5
  9
$AUNITS
 70
     0
  9
$AUPREC
 70
     0
  9
$MENU
  1
.
  9
$ELEVATION
 40
0.0
  9
$PELEVATION
 40
0.0
  9
$THICKNESS
 40
0.0
  9
$LIMCHECK
 70
     0
  9
$CHAMFERA
 40
0.5
  9
$CHAMFERB
 40
0.5
  9
$CHAMFERC
 40
1.0
  9
$CHAMFERD
 40
0.0
  9
$SKPOLY
 70
     0
  9
$TDCREATE
 40
2456281.582933368
  9
$TDUCREATE
 40
2456281.541266701
  9
$TDUPDATE
 40
2456281.58293338
  9
$TDUUPDATE
 40
2456281.541266713
  9
$TDINDWG
 40
0.0000000116
  9
$TDUSRTIMER
 40
0.0000000116
  9
$USRTIMER
 70
     1
  9
$ANGBASE
 50
0.0
  9
$ANGDIR
 70
     0
  9
$PDMODE
 70
     0
  9
$PDSIZE
 40
0.0
  9
$PLINEWID
 40
0.0
  9
$SPLFRAME
 70
     0
  9
$SPLINETYPE
 70
     6
  9
$SPLINESEGS
 70
     8
  9
$HANDSEED
  5
4EF
  9
$SURFTAB1
 70
     6
  9
$SURFTAB2
 70
     6
  9
$SURFTYPE
 70
     6
  9
$SURFU
 70
     6
  9
$SURFV
 70
     6
  9
$UCSBASE
  2

  9
$UCSNAME
  2

  9
$UCSORG
 10
0.0
 20
0.0
 30
0.0
  9
$UCSXDIR
 10
1.0
 20
0.0
 30
0.0
  9
$UCSYDIR
 10
0.0
 20
1.0
 30
0.0
  9
$UCSORTHOREF
  2

  9
$UCSORTHOVIEW
 70
     0
  9
$UCSORGTOP
 10
0.0
 20
0.0
 30
0.0
  9
$UCSORGBOTTOM
 10
0.0
 20
0.0
 30
0.0
  9
$UCSORGLEFT
 10
0.0
 20
0.0
 30
0.0
  9
$UCSORGRIGHT
 10
0.0
 20
0.0
 30
0.0
  9
$UCSORGFRONT
 10
0.0
 20
0.0
 30
0.0
  9
$UCSORGBACK
 10
0.0
 20
0.0
 30
0.0
  9
$PUCSBASE
  2

  9
$PUCSNAME
  2

  9
$PUCSORG
 10
0.0
 20
0.0
 30
0.0
  9
$PUCSXDIR
 10
1.0
 20
0.0
 30
0.0
  9
$PUCSYDIR
 10
0.0
 20
1.0
 30
0.0
  9
$PUCSORTHOREF
  2

  9
$PUCSORTHOVIEW
 70
     0
  9
$PUCSORGTOP
 10
0.0
 20
0.0
 30
0.0
  9
$PUCSORGBOTTOM
 10
0.0
 20
0.0
 30
0.0
  9
$PUCSORGLEFT
 10
0.0
 20
0.0
 30
0.0
  9
$PUCSORGRIGHT
 10
0.0
 20
0.0
 30
0.0
  9
$PUCSORGFRONT
 10
0.0
 20
0.0
 30
0.0
  9
$PUCSORGBACK
 10
0.0
 20
0.0
 30
0.0
  9
$USERI1
 70
     0
  9
$USERI2
 70
     0
  9
$USERI3
 70
     0
  9
$USERI4
 70
     0
  9
$USERI5
 70
     0
  9
$USERR1
 40
18.0
  9
$USERR2
 40
0.0
  9
$USERR3
 40
0.0
  9
$USERR4
 40
0.0
  9
$USERR5
 40
0.0
  9
$WORLDVIEW
 70
     1
  9
$SHADEDGE
 70
     3
  9
$SHADEDIF
 70
    70
  9
$TILEMODE
 70
     1
  9
$MAXACTVP
 70
    64
  9
$PINSBASE
 10
0.0
 20
0.0
 30
0.0
  9
$PLIMCHECK
 70
     0
  9
$PEXTMIN
 10
1.00000000000000E+20
 20
1.00000000000000E+20
 30
1.00000000000000E+20
  9
$PEXTMAX
 10
-1.00000000000000E+20
 20
-1.00000000000000E+20
 30
-1.00000000000000E+20
  9
$PLIMMIN
 10
0.0
 20
0.0
  9
$PLIMMAX
 10
12.0
 20
9.0
  9
$UNITMODE
 70
     0
  9
$VISRETAIN
 70
     1
  9
$PLINEGEN
 70
     0
  9
$PSLTSCALE
 70
     1
  9
$TREEDEPTH
 70
  3020
  9
$CMLSTYLE
  2
Standard
  9
$CMLJUST
 70
     0
  9
$CMLSCALE
 40
1.0
  9
$PROXYGRAPHICS
 70
     1
  9
$MEASUREMENT
 70
     1
  9
$CELWEIGHT
370
    -1
  9
$ENDCAPS
280
     0
  9
$JOINSTYLE
280
     0
  9
$LWDISPLAY
290
     0
  9
$INSUNITS
 70
     1
  9
$HYPERLINKBASE
  1

  9
$STYLESHEET
  1

  9
$XEDIT
290
     1
  9
$CEPSNTYPE
380
     0
  9
$PSTYLEMODE
290
     1
  9
$FINGERPRINTGUID
  2
{BBC5CCC3-A5E6-4D37-B105-93CFB9A84FD7}
  9
$VERSIONGUID
  2
{FAEB1C32-E019-11D5-929B-00C0DF256EC4}
  9
$EXTNAMES
290
     1
  9
$PSVPSCALE
 40
0.0
  9
$OLESTARTUP
290
     0
  0
ENDSEC
  0
SECTION
  2
CLASSES
  0
CLASS
  1
ACDBDICTIONARYWDFLT
  2
AcDbDictionaryWithDefault
  3
ObjectDBX Classes
 90
        0
280
     0
281
     0
  0
CLASS
  1
VISUALSTYLE
  2
AcDbVisualStyle
  3
ObjectDBX Classes
 90
     4095
280
     0
281
     0
  0
CLASS
  1
MATERIAL
  2
AcDbMaterial
  3
ObjectDBX Classes
 90
     1153
280
     0
281
     0
  0
CLASS
  1

  2
exOdDbPolyline
  3

 90
        0
280
     0
281
     1
  0
CLASS
  1

  2
exOdDbSpline
  3

 90
        0
280
     0
281
     1
  0
CLASS
  1
SCALE
  2
AcDbScale
  3
ObjectDBX Classes
 90
     1153
280
     0
281
     0
  0
CLASS
  1
DICTIONARYVAR
  2
AcDbDictionaryVar
  3
ObjectDBX Classes
 90
        0
280
     0
281
     0
  0
CLASS
  1
ACDBPLACEHOLDER
  2
AcDbPlaceHolder
  3
ObjectDBX Classes
 90
        0
280
     0
281
     0
  0
CLASS
  1
LAYOUT
  2
AcDbLayout
  3
ObjectDBX Classes
 90
        0
280
     0
281
     0
  0
ENDSEC
  0
SECTION
  2
TABLES
  0
TABLE
  2
VPORT
  5
8
330
0
100
AcDbSymbolTable
 70
     1
  0
VPORT
  5
29
330
8
100
AcDbSymbolTableRecord
100
AcDbViewportTableRecord
  2
*Active
 70
     0
 10
0.0
 20
0.0
 11
1.0
 21
1.0
 12
-297.0
 22
210.0
 13
0.0
 23
0.0
 14
0.5
 24
0.5
 15
0.5
 25
0.5
 16
0.0
 26
0.0
 36
1.0
 17
0.0
 27
0.0
 37
0.0
 40
462.0000000000001
 41
1.60267857142857
 42
50.0
 43
0.0
 44
0.0
 50
0.0
 51
0.0
 71
     0
 72
   100
 73
     1
 74
     3
 75
     0
 76
     0
 77
     0
 78
     0
281
     0
 65
     1
110
0.0
120
0.0
130
0.0
111
1.0
121
0.0
131
0.0
112
0.0
122
1.0
132
0.0
 79
     0
146
0.0
  0
ENDTAB
  0
TABLE
  2
LTYPE
  5
5
330
0
100
AcDbSymbolTable
 70
     8
  0
LTYPE
  5
14
330
5
100
AcDbSymbolTableRecord
100
AcDbLinetypeTableRecord
  2
ByBlock
 70
     0
  3

 72
    65
 73
     0
 40
0.0
  0
LTYPE
  5
15
330
5
100
AcDbSymbolTableRecord
100
AcDbLinetypeTableRecord
  2
ByLayer
 70
     0
  3

 72
    65
 73
     0
 40
0.0
  0
LTYPE
  5
16
330
5
100
AcDbSymbolTableRecord
100
AcDbLinetypeTableRecord
  2
Continuous
 70
     0
  3
Solid line
 72
    65
 73
     0
 40
0.0
  0
LTYPE
  5
3F
330
5
100
AcDbSymbolTableRecord
100
AcDbLinetypeTableRecord
  2
DASHED
 70
     0
  3
Dashed
 72
    65
 73
     2
 40
15.0
 49
7.0
 74
     0
 49
-8.0
 74
     0
  0
LTYPE
  5
40
330
5
100
AcDbSymbolTableRecord
100
AcDbLinetypeTableRecord
  2
DOTTED
 70
     0
  3
Dotted
 72
    65
 73
     2
 40
1.0
 49
0.0
 74
     0
 49
-1.0
 74
     0
  0
LTYPE
  5
41
330
5
100
AcDbSymbolTableRecord
100
AcDbLinetypeTableRecord
  2
DOT_CENTER
 70
     0
  3
Dot_Center
 72
    65
 73
     4
 40
14.0
 49
12.0
 74
     0
 49
-1.0
 74
     0
 49
0.0
 74
     0
 49
-1.0
 74
     0
  0
LTYPE
  5
42
330
5
100
AcDbSymbolTableRecord
100
AcDbLinetypeTableRecord
  2
LONG_DASHED
 70
     0
  3
Long_Dashed
 72
    65
 73
     2
 40
15.0
 49
10.0
 74
     0
 49
-5.0
 74
     0
  0
LTYPE
  5
43
330
5
100
AcDbSymbolTableRecord
100
AcDbLinetypeTableRecord
  2
DASH_CENTER
 70
     0
  3
Dash_Center
 72
    65
 73
     4
 40
14.0
 49
11.0
 74
     0
 49
-1.0
 74
     0
 49
1.0
 74
     0
 49
-1.0
 74
     0
  0
LTYPE
  5
44
330
5
100
AcDbSymbolTableRecord
100
AcDbLinetypeTableRecord
  2
PHANTOM
 70
     0
  3
Phantom
 72
    65
 73
     6
 40
13.0
 49
10.0
 74
     0
 49
-1.0
 74
     0
 49
0.0
 74
     0
 49
-1.0
 74
     0
 49
0.0
 74
     0
 49
-1.0
 74
     0
  0
LTYPE
  5
45
330
5
100
AcDbSymbolTableRecord
100
AcDbLinetypeTableRecord
  2
CENTER_DASH_DASH
 70
     0
  3
Center_Dash_Dash
 72
    65
 73
     6
 40
14.0
 49
9.0
 74
     0
 49
-1.0
 74
     0
 49
1.0
 74
     0
 49
-1.0
 74
     0
 49
1.0
 74
     0
 49
-1.0
 74
     0
  0
ENDTAB
  0
TABLE
  2
LAYER
  5
2
330
0
100
AcDbSymbolTable
 70
     4
  0
LAYER
  5
10
330
2
100
AcDbSymbolTableRecord
100
AcDbLayerTableRecord
  2
0
 70
     0
 62
     7
  6
Continuous
370
    -3
390
F
  0
LAYER
  5
46
330
2
100
AcDbSymbolTableRecord
100
AcDbLayerTableRecord
  2
1
 70
     0
 62
     7
  6
Continuous
370
    -3
390
F
  0
LAYER
  5
47
330
2
100
AcDbSymbolTableRecord
100
AcDbLayerTableRecord
  2
Bemaßungen_TC_020513_DIN_
 70
     0
 62
     7
  6
Continuous
370
    -3
390
F
  0
LAYER
  5
48
330
2
100
AcDbSymbolTableRecord
100
AcDbLayerTableRecord
  2
Sichtbare_Kanten_TC_020513_DIN_
 70
     0
 62
     7
  6
Continuous
370
    -3
390
F
  0
ENDTAB
  0
TABLE
  2
STYLE
  5
3
330
0
100
AcDbSymbolTable
 70
     4
  0
STYLE
  5
11
330
3
100
AcDbSymbolTableRecord
100
AcDbTextStyleTableRecord
  2
Standard
 70
     0
 40
0.0
 41
1.0
 50
0.0
 71
     0
 42
0.2
  3
txt
  4

  0
STYLE
  5
43A
330
3
100
AcDbSymbolTableRecord
100
AcDbTextStyleTableRecord
  2
CONVERTER_11
 70
     0
 40
0.0
 41
0.5625
 50
0.0
 71
     0
 42
0.2
  3
txt.shx
  4

  0
STYLE
  5
461
330
3
100
AcDbSymbolTableRecord
100
AcDbTextStyleTableRecord
  2
CONVERTER_12
 70
     0
 40
0.0
 41
0.646875
 50
0.0
 71
     0
 42
0.2
  3
txt.shx
  4

  0
STYLE
  5
46C
330
3
100
AcDbSymbolTableRecord
100
AcDbTextStyleTableRecord
  2
CONVERTER_13
 70
     0
 40
0.0
 41
0.95
 50
0.0
 71
     0
 42
0.2
  3
simplex.shx
  4

  0
ENDTAB
  0
TABLE
  2
VIEW
  5
6
330
0
100
AcDbSymbolTable
 70
     0
  0
ENDTAB
  0
TABLE
  2
UCS
  5
7
330
0
100
AcDbSymbolTable
 70
     0
  0
ENDTAB
  0
TABLE
  2
APPID
  5
9
330
0
100
AcDbSymbolTable
 70
     1
  0
APPID
  5
12
330
9
100
AcDbSymbolTableRecord
100
AcDbRegAppTableRecord
  2
ACAD
 70
     0
  0
ENDTAB
  0
TABLE
  2
DIMSTYLE
  5
A
330
0
100
AcDbSymbolTable
 70
     9
100
AcDbDimStyleTable
  0
DIMSTYLE
105
27
330
A
100
AcDbSymbolTableRecord
100
AcDbDimStyleTableRecord
  2
Standard
 70
     0
340
11
  0
DIMSTYLE
105
470
102
{ACAD_REACTORS
330
471
102
}
330
A
100
AcDbSymbolTableRecord
100
AcDbDimStyleTableRecord
  2
ME10_DIM_10
 70
     0
 41
6.0
 42
1.0
 44
2.0
 73
     0
 74
     0
 77
     1
 78
    12
140
6.0
147
4.0
172
     1
173
     1
174
     1
175
     1
176
     2
177
     2
178
     4
271
     2
340
46C
  0
DIMSTYLE
105
47B
102
{ACAD_REACTORS
330
47C
102
}
330
A
100
AcDbSymbolTableRecord
100
AcDbDimStyleTableRecord
  2
ME10_DIM_11
 70
     0
 41
6.0
 42
1.0
 44
2.0
 73
     0
 74
     0
 77
     1
 78
    12
140
6.0
147
4.0
172
     1
173
     1
174
     1
175
     1
176
     2
177
     2
178
     4
271
     2
340
46C
  0
DIMSTYLE
105
486
102
{ACAD_REACTORS
330
487
102
}
330
A
100
AcDbSymbolTableRecord
100
AcDbDimStyleTableRecord
  2
ME10_DIM_12
 70
     0
 41
6.0
 42
1.0
 44
2.0
 73
     0
 74
     0
 77
     1
 78
    12
140
6.0
147
4.0
172
     1
173
     1
174
     1
175
     1
176
     2
177
     2
178
     4
271
     2
340
46C
  0
DIMSTYLE
105
491
102
{ACAD_REACTORS
330
492
102
}
330
A
100
AcDbSymbolTableRecord
100
AcDbDimStyleTableRecord
  2
ME10_DIM_13
 70
     0
 41
6.0
 42
1.0
 44
2.0
 73
     0
 74
     0
 77
     1
 78
    12
140
6.0
147
4.0
172
     1
173
     1
174
     1
175
     1
176
     2
177
     2
178
     4
271
     2
340
46C
  0
DIMSTYLE
105
49C
102
{ACAD_REACTORS
330
49D
102
}
330
A
100
AcDbSymbolTableRecord
100
AcDbDimStyleTableRecord
  2
ME10_DIM_14
 70
     0
 41
6.0
 42
1.0
 44
2.0
 73
     0
 74
     0
 77
     1
 78
    12
140
6.0
147
4.0
172
     1
173
     1
174
     1
175
     1
176
     2
177
     2
178
     4
271
     2
340
46C
  0
DIMSTYLE
105
4A7
102
{ACAD_REACTORS
330
4A8
102
}
330
A
100
AcDbSymbolTableRecord
100
AcDbDimStyleTableRecord
  2
ME10_DIM_15
 70
     0
 41
6.0
 42
1.0
 44
2.0
 73
     0
 74
     0
 77
     1
 78
    12
140
6.0
147
4.0
172
     1
173
     1
174
     1
175
     1
176
     2
177
     2
178
     4
271
     2
340
46C
  0
DIMSTYLE
105
4B2
102
{ACAD_REACTORS
330
4B3
102
}
330
A
100
AcDbSymbolTableRecord
100
AcDbDimStyleTableRecord
  2
ME10_DIM_16
 70
     0
 41
6.0
 42
1.0
 44
2.0
 73
     0
 74
     0
 77
     1
 78
    12
140
6.0
147
4.0
172
     1
173
     1
174
     1
175
     1
176
     2
177
     2
178
     4
271
     2
340
46C
  0
DIMSTYLE
105
4BD
102
{ACAD_REACTORS
330
4BE
102
}
330
A
100
AcDbSymbolTableRecord
100
AcDbDimStyleTableRecord
  2
ME10_DIM_17
 70
     0
 41
6.0
 42
1.0
 44
2.0
 73
     0
 74
     0
 77
     1
 78
    12
140
6.0
147
4.0
172
     1
173
     1
174
     1
175
     1
176
     2
177
     2
178
     4
271
     2
340
46C
  0
ENDTAB
  0
TABLE
  2
BLOCK_RECORD
  5
1
330
0
100
AcDbSymbolTable
 70
     9
  0
BLOCK_RECORD
  5
1F
330
1
100
AcDbSymbolTableRecord
100
AcDbBlockTableRecord
  2
*Model_Space
340
22
  0
BLOCK_RECORD
  5
1B
330
1
100
AcDbSymbolTableRecord
100
AcDbBlockTableRecord
  2
*Paper_Space
340
1E
  0
BLOCK_RECORD
  5
23
330
1
100
AcDbSymbolTableRecord
100
AcDbBlockTableRecord
  2
*Paper_Space0
340
26
  0
BLOCK_RECORD
  5
466
330
1
100
AcDbSymbolTableRecord
100
AcDbBlockTableRecord
  2
*D1
340
0
  0
BLOCK_RECORD
  5
472
330
1
100
AcDbSymbolTableRecord
100
AcDbBlockTableRecord
  2
*D2
340
0
  0
BLOCK_RECORD
  5
47D
330
1
100
AcDbSymbolTableRecord
100
AcDbBlockTableRecord
  2
*D3
340
0
  0
BLOCK_RECORD
  5
488
330
1
100
AcDbSymbolTableRecord
100
AcDbBlockTableRecord
  2
*D4
340
0
  0
BLOCK_RECORD
  5
493
330
1
100
AcDbSymbolTableRecord
100
AcDbBlockTableRecord
  2
*D5
340
0
  0
BLOCK_RECORD
  5
49E
330
1
100
AcDbSymbolTableRecord
100
AcDbBlockTableRecord
  2
*D6
340
0
  0
BLOCK_RECORD
  5
4A9
330
1
100
AcDbSymbolTableRecord
100
AcDbBlockTableRecord
  2
*D7
340
0
  0
BLOCK_RECORD
  5
4B4
330
1
100
AcDbSymbolTableRecord
100
AcDbBlockTableRecord
  2
*D8
340
0
  0
ENDTAB
  0
ENDSEC
  0
SECTION
  2
BLOCKS
  0
BLOCK
  5
20
330
1F
100
AcDbEntity
  8
0
100
AcDbBlockBegin
  2
*Model_Space
 70
     0
 10
0.0
 20
0.0
 30
0.0
  3
*Model_Space
  1

  0
ENDBLK
  5
21
330
1F
100
AcDbEntity
  8
0
100
AcDbBlockEnd
  0
BLOCK
  5
1C
330
1B
100
AcDbEntity
 67
     1
  8
0
100
AcDbBlockBegin
  2
*Paper_Space
 70
     0
 10
0.0
 20
0.0
 30
0.0
  3
*Paper_Space
  1

  0
ENDBLK
  5
1D
330
1B
100
AcDbEntity
 67
     1
  8
0
100
AcDbBlockEnd
  0
BLOCK
  5
24
330
23
100
AcDbEntity
  8
0
100
AcDbBlockBegin
  2
*Paper_Space0
 70
     0
 10
0.0
 20
0.0
 30
0.0
  3
*Paper_Space0
  1

  0
ENDBLK
  5
25
330
23
100
AcDbEntity
  8
0
100
AcDbBlockEnd
  0
BLOCK
  5
46E
330
466
100
AcDbEntity
  8
0
100
AcDbBlockBegin
  2
*D1
 70
     1
 10
0.0
 20
0.0
 30
0.0
  3
*D1
  1

  0
LINE
  5
467
330
466
100
AcDbEntity
  8
1
  6
Continuous
 62
     2
100
AcDbLine
 10
-455.421970554926
 20
153.782389580974
 30
0.0
 11
-334.421970554926
 21
153.782389580974
 31
0.0
  0
LINE
  5
468
330
466
100
AcDbEntity
  8
1
  6
Continuous
 62
     2
100
AcDbLine
 10
-455.421970554926
 20
172.782389580974
 30
0.0
 11
-455.421970554926
 21
151.782389580974
 31
0.0
  0
LINE
  5
469
330
466
100
AcDbEntity
  8
1
  6
Continuous
 62
     2
100
AcDbLine
 10
-334.421970554926
 20
172.782389580974
 30
0.0
 11
-334.421970554926
 21
151.782389580974
 31
0.0
  0
SOLID
  5
46A
330
466
100
AcDbEntity
  8
1
 62
     2
100
AcDbTrace
 10
-340.421970554926
 20
152.9924745954496
 30
0.0
 11
-340.421970554926
 21
154.5723045664984
 31
0.0
 12
-334.421970554926
 22
153.782389580974
 32
0.0
 13
-334.421970554926
 23
153.782389580974
 33
0.0
  0
SOLID
  5
46B
330
466
100
AcDbEntity
  8
1
 62
     2
100
AcDbTrace
 10
-449.421970554926
 20
154.5723045664984
 30
0.0
 11
-449.421970554926
 21
152.9924745954496
 31
0.0
 12
-455.421970554926
 22
153.782389580974
 32
0.0
 13
-455.421970554926
 23
153.782389580974
 33
0.0
  0
MTEXT
  5
46D
330
466
100
AcDbEntity
  8
1
 62
     4
100
AcDbMText
 10
-401.9329632827002
 20
157.7823725858392
 30
0.0
 40
6.0
 41
0.0
 71
     7
 72
     1
  1
121
  7
CONVERTER_13
 11
0.9999999999882478
 21
4.848136811095759E-6
 31
0.0
 73
     1
 44
0.60024009603842
  0
ENDBLK
  5
46F
330
466
100
AcDbEntity
  8
0
100
AcDbBlockEnd
  0
BLOCK
  5
479
330
472
100
AcDbEntity
  8
0
100
AcDbBlockBegin
  2
*D2
 70
     1
 10
0.0
 20
0.0
 30
0.0
  3
*D2
  1

  0
LINE
  5
473
330
472
100
AcDbEntity
  8
1
  6
Continuous
 62
     2
100
AcDbLine
 10
-256.67196871067
 20
153.782389580974
 30
0.0
 11
-177.67196871067
 21
153.782389580974
 31
0.0
  0
LINE
  5
474
330
472
100
AcDbEntity
  8
1
  6
Continuous
 62
     2
100
AcDbLine
 10
-256.67196871067
 20
172.782389580974
 30
0.0
 11
-256.67196871067
 21
151.782389580974
 31
0.0
  0
LINE
  5
475
330
472
100
AcDbEntity
  8
1
  6
Continuous
 62
     2
100
AcDbLine
 10
-177.67196871067
 20
172.782389580974
 30
0.0
 11
-177.67196871067
 21
151.782389580974
 31
0.0
  0
SOLID
  5
476
330
472
100
AcDbEntity
  8
1
 62
     2
100
AcDbTrace
 10
-183.67196871067
 20
152.9924745954496
 30
0.0
 11
-183.67196871067
 21
154.5723045664984
 31
0.0
 12
-177.67196871067
 22
153.782389580974
 32
0.0
 13
-177.67196871067
 23
153.782389580974
 33
0.0
  0
SOLID
  5
477
330
472
100
AcDbEntity
  8
1
 62
     2
100
AcDbTrace
 10
-250.67196871067
 20
154.5723045664984
 30
0.0
 11
-250.67196871067
 21
152.9924745954496
 31
0.0
 12
-256.67196871067
 22
153.782389580974
 32
0.0
 13
-256.67196871067
 23
153.782389580974
 33
0.0
  0
MTEXT
  5
478
330
472
100
AcDbEntity
  8
1
 62
     4
100
AcDbMText
 10
-221.845961438451
 20
157.7823782508871
 30
0.0
 40
6.0
 41
0.0
 71
     7
 72
     1
  1
79
  7
CONVERTER_13
 11
0.9999999999882478
 21
4.848136811095759E-6
 31
0.0
 73
     1
 44
0.60024009603842
  0
ENDBLK
  5
47A
330
472
100
AcDbEntity
  8
0
100
AcDbBlockEnd
  0
BLOCK
  5
484
330
47D
100
AcDbEntity
  8
0
100
AcDbBlockBegin
  2
*D3
 70
     1
 10
0.0
 20
0.0
 30
0.0
  3
*D3
  1

  0
LINE
  5
47E
330
47D
100
AcDbEntity
  8
1
  6
Continuous
 62
     2
100
AcDbLine
 10
-262.17196871067
 20
133.782389580974
 30
0.0
 11
-172.17196871067
 21
133.782389580974
 31
0.0
  0
LINE
  5
47F
330
47D
100
AcDbEntity
  8
1
  6
Continuous
 62
     2
100
AcDbLine
 10
-262.17196871067
 20
181.782389580974
 30
0.0
 11
-262.17196871067
 21
131.782389580974
 31
0.0
  0
LINE
  5
480
330
47D
100
AcDbEntity
  8
1
  6
Continuous
 62
     2
100
AcDbLine
 10
-172.17196871067
 20
181.782389580974
 30
0.0
 11
-172.17196871067
 21
131.782389580974
 31
0.0
  0
SOLID
  5
481
330
47D
100
AcDbEntity
  8
1
 62
     2
100
AcDbTrace
 10
-178.17196871067
 20
132.9924745954496
 30
0.0
 11
-178.17196871067
 21
134.5723045664984
 31
0.0
 12
-172.17196871067
 22
133.782389580974
 32
0.0
 13
-172.17196871067
 23
133.782389580974
 33
0.0
  0
SOLID
  5
482
330
47D
100
AcDbEntity
  8
1
 62
     2
100
AcDbTrace
 10
-256.17196871067
 20
134.5723045664984
 30
0.0
 11
-256.17196871067
 21
132.9924745954496
 31
0.0
 12
-262.17196871067
 22
133.782389580974
 32
0.0
 13
-262.17196871067
 23
133.782389580974
 33
0.0
  0
MTEXT
  5
483
330
47D
100
AcDbEntity
  8
1
 62
     4
100
AcDbMText
 10
-221.845961438451
 20
137.7823782508871
 30
0.0
 40
6.0
 41
0.0
 71
     7
 72
     1
  1
90
  7
CONVERTER_13
 11
0.9999999999882478
 21
4.848136811095759E-6
 31
0.0
 73
     1
 44
0.60024009603842
  0
ENDBLK
  5
485
330
47D
100
AcDbEntity
  8
0
100
AcDbBlockEnd
  0
BLOCK
  5
48F
330
488
100
AcDbEntity
  8
0
100
AcDbBlockBegin
  2
*D4
 70
     1
 10
0.0
 20
0.0
 30
0.0
  3
*D4
  1

  0
LINE
  5
489
330
488
100
AcDbEntity
  8
1
  6
Continuous
 62
     2
100
AcDbLine
 10
-147.67196871067
 20
182.7823895809741
 30
0.0
 11
-147.67196871067
 21
280.7823895809741
 31
0.0
  0
LINE
  5
48A
330
488
100
AcDbEntity
  8
1
  6
Continuous
 62
     2
100
AcDbLine
 10
-171.17196871067
 20
182.7823895809741
 30
0.0
 11
-145.67196871067
 21
182.7823895809741
 31
0.0
  0
LINE
  5
48B
330
488
100
AcDbEntity
  8
1
  6
Continuous
 62
     2
100
AcDbLine
 10
-179.6719687106671
 20
280.7823895809741
 30
0.0
 11
-145.67196871067
 21
280.7823895809741
 31
0.0
  0
SOLID
  5
48C
330
488
100
AcDbEntity
  8
1
 62
     2
100
AcDbTrace
 10
-146.8820537251456
 20
274.7823895809741
 30
0.0
 11
-148.4618836961944
 21
274.7823895809741
 31
0.0
 12
-147.67196871067
 22
280.7823895809741
 32
0.0
 13
-147.67196871067
 23
280.7823895809741
 33
0.0
  0
SOLID
  5
48D
330
488
100
AcDbEntity
  8
1
 62
     2
100
AcDbTrace
 10
-148.4618836961944
 20
188.7823895809741
 30
0.0
 11
-146.8820537251456
 21
188.7823895809741
 31
0.0
 12
-147.67196871067
 22
182.7823895809741
 32
0.0
 13
-147.67196871067
 23
182.7823895809741
 33
0.0
  0
MTEXT
  5
48E
330
488
100
AcDbEntity
  8
1
 62
     4
100
AcDbMText
 10
-151.67196871067
 20
223.062518021341
 30
0.0
 40
6.0
 41
0.0
 71
     7
 72
     1
  1
98
  7
CONVERTER_13
 11
0.0
 21
1.0
 31
0.0
 73
     1
 44
0.60024009603842
  0
ENDBLK
  5
490
330
488
100
AcDbEntity
  8
0
100
AcDbBlockEnd
  0
BLOCK
  5
49A
330
493
100
AcDbEntity
  8
0
100
AcDbBlockBegin
  2
*D5
 70
     1
 10
0.0
 20
0.0
 30
0.0
  3
*D5
  1

  0
LINE
  5
494
330
493
100
AcDbEntity
  8
1
  6
Continuous
 62
     2
100
AcDbLine
 10
-127.67196871067
 20
300.2823895809738
 30
0.0
 11
-127.67196871067
 21
182.7823895809738
 31
0.0
  0
LINE
  5
495
330
493
100
AcDbEntity
  8
1
  6
Continuous
 62
     2
100
AcDbLine
 10
-191.1719687106541
 20
300.2823895809738
 30
0.0
 11
-125.67196871067
 21
300.2823895809738
 31
0.0
  0
LINE
  5
496
330
493
100
AcDbEntity
  8
1
  6
Continuous
 62
     2
100
AcDbLine
 10
-171.17196871067
 20
182.7823895809738
 30
0.0
 11
-125.67196871067
 21
182.7823895809738
 31
0.0
  0
SOLID
  5
497
330
493
100
AcDbEntity
  8
1
 62
     2
100
AcDbTrace
 10
-128.4618836961944
 20
188.7823895809738
 30
0.0
 11
-126.8820537251456
 21
188.7823895809738
 31
0.0
 12
-127.67196871067
 22
182.7823895809738
 32
0.0
 13
-127.67196871067
 23
182.7823895809738
 33
0.0
  0
SOLID
  5
498
330
493
100
AcDbEntity
  8
1
 62
     2
100
AcDbTrace
 10
-126.8820537251456
 20
294.2823895809738
 30
0.0
 11
-128.4618836961944
 21
294.2823895809738
 31
0.0
 12
-127.67196871067
 22
300.2823895809738
 32
0.0
 13
-127.67196871067
 23
300.2823895809738
 33
0.0
  0
MTEXT
  5
499
330
493
100
AcDbEntity
  8
1
 62
     4
100
AcDbMText
 10
-131.97196871067
 20
225.811130038989
 30
0.0
 40
6.0
 41
0.0
 71
     7
 72
     1
  1
117,5
  7
CONVERTER_13
 11
0.0
 21
1.0
 31
0.0
 73
     1
 44
0.60024009603842
  0
ENDBLK
  5
49B
330
493
100
AcDbEntity
  8
0
100
AcDbBlockEnd
  0
BLOCK
  5
4A5
330
49E
100
AcDbEntity
  8
0
100
AcDbBlockBegin
  2
*D6
 70
     1
 10
0.0
 20
0.0
 30
0.0
  3
*D6
  1

  0
LINE
  5
49F
330
49E
100
AcDbEntity
  8
1
  6
Continuous
 62
     2
100
AcDbLine
 10
-369.921970554926
 20
322.7824122411449
 30
0.0
 11
-419.921970554926
 21
322.7824122411449
 31
0.0
  0
LINE
  5
4A0
330
49E
100
AcDbEntity
  8
1
  6
Continuous
 62
     2
100
AcDbLine
 10
-419.921970554926
 20
301.282389580974
 30
0.0
 11
-419.921970554926
 21
324.7824122411449
 31
0.0
  0
LINE
  5
4A1
330
49E
100
AcDbEntity
  8
1
  6
Continuous
 62
     2
100
AcDbLine
 10
-369.921970554926
 20
301.282389580974
 30
0.0
 11
-369.921970554926
 21
324.7824122411449
 31
0.0
  0
SOLID
  5
4A2
330
49E
100
AcDbEntity
  8
1
 62
     2
100
AcDbTrace
 10
-375.921970554926
 20
321.9924972556205
 30
0.0
 11
-375.921970554926
 21
323.5723272266692
 31
0.0
 12
-369.921970554926
 22
322.7824122411449
 32
0.0
 13
-369.921970554926
 23
322.7824122411449
 33
0.0
  0
SOLID
  5
4A3
330
49E
100
AcDbEntity
  8
1
 62
     2
100
AcDbTrace
 10
-413.921970554926
 20
323.5723272266692
 30
0.0
 11
-413.921970554926
 21
321.9924972556205
 31
0.0
 12
-419.921970554926
 22
322.7824122411449
 32
0.0
 13
-419.921970554926
 23
322.7824122411449
 33
0.0
  0
MTEXT
  5
4A4
330
49E
100
AcDbEntity
  8
1
 62
     4
100
AcDbMText
 10
-418.0219632826529
 20
326.7823335850026
 30
0.0
 40
6.0
 41
0.0
 71
     7
 72
     1
  1
NPT 1"1/4 
  7
CONVERTER_13
 11
0.9999999999882478
 21
4.848136811095759E-6
 31
0.0
 73
     1
 44
0.60024009603842
  0
ENDBLK
  5
4A6
330
49E
100
AcDbEntity
  8
0
100
AcDbBlockEnd
  0
BLOCK
  5
4B0
330
4A9
100
AcDbEntity
  8
0
100
AcDbBlockBegin
  2
*D7
 70
     1
 10
0.0
 20
0.0
 30
0.0
  3
*D7
  1

  0
LINE
  5
4AA
330
4A9
100
AcDbEntity
  8
1
  6
Continuous
 62
     2
100
AcDbLine
 10
-470.171970554926
 20
133.782389580974
 30
0.0
 11
-319.671970554926
 21
133.782389580974
 31
0.0
  0
LINE
  5
4AB
330
4A9
100
AcDbEntity
  8
1
  6
Continuous
 62
     2
100
AcDbLine
 10
-470.171970554926
 20
188.032389580974
 30
0.0
 11
-470.171970554926
 21
131.782389580974
 31
0.0
  0
LINE
  5
4AC
330
4A9
100
AcDbEntity
  8
1
  6
Continuous
 62
     2
100
AcDbLine
 10
-319.671970554926
 20
188.032389580974
 30
0.0
 11
-319.671970554926
 21
131.782389580974
 31
0.0
  0
SOLID
  5
4AD
330
4A9
100
AcDbEntity
  8
1
 62
     2
100
AcDbTrace
 10
-325.671970554926
 20
132.9924745954496
 30
0.0
 11
-325.671970554926
 21
134.5723045664984
 31
0.0
 12
-319.671970554926
 22
133.782389580974
 32
0.0
 13
-319.671970554926
 23
133.782389580974
 33
0.0
  0
SOLID
  5
4AE
330
4A9
100
AcDbEntity
  8
1
 62
     2
100
AcDbTrace
 10
-464.171970554926
 20
134.5723045664984
 30
0.0
 11
-464.171970554926
 21
132.9924745954496
 31
0.0
 12
-470.171970554926
 22
133.782389580974
 32
0.0
 13
-470.171970554926
 23
133.782389580974
 33
0.0
  0
MTEXT
  5
4AF
330
4A9
100
AcDbEntity
  8
1
 62
     4
100
AcDbMText
 10
-406.6069632826865
 20
138.0823612557435
 30
0.0
 40
6.0
 41
0.0
 71
     7
 72
     1
  1
150,5
  7
CONVERTER_13
 11
0.9999999999882478
 21
4.848136811095759E-6
 31
0.0
 73
     1
 44
0.60024009603842
  0
ENDBLK
  5
4B1
330
4A9
100
AcDbEntity
  8
0
100
AcDbBlockEnd
  0
BLOCK
  5
4BB
330
4B4
100
AcDbEntity
  8
0
100
AcDbBlockBegin
  2
*D8
 70
     1
 10
0.0
 20
0.0
 30
0.0
  3
*D8
  1

  0
LINE
  5
4B5
330
4B4
100
AcDbEntity
  8
1
  6
Continuous
 62
     2
100
AcDbLine
 10
-127.731496816174
 20
161.782389580974
 30
0.0
 11
-127.731496816174
 21
194.782389580974
 31
0.0
  0
LINE
  5
4B6
330
4B4
100
AcDbEntity
  8
1
  6
Continuous
 62
     2
100
AcDbLine
 10
-176.6719687106699
 20
173.782389580974
 30
0.0
 11
-125.731496816174
 21
173.782389580974
 31
0.0
  0
LINE
  5
4B7
330
4B4
100
AcDbEntity
  8
1
  6
Continuous
 62
     2
100
AcDbLine
 10
-171.1719687106699
 20
182.782389580974
 30
0.0
 11
-125.731496816174
 21
182.782389580974
 31
0.0
  0
SOLID
  5
4B8
330
4B4
100
AcDbEntity
  8
1
 62
     2
100
AcDbTrace
 10
-128.5214118016984
 20
188.782389580974
 30
0.0
 11
-126.9415818306496
 21
188.782389580974
 31
0.0
 12
-127.731496816174
 22
182.782389580974
 32
0.0
 13
-127.731496816174
 23
182.782389580974
 33
0.0
  0
SOLID
  5
4B9
330
4B4
100
AcDbEntity
  8
1
 62
     2
100
AcDbTrace
 10
-126.9415818306496
 20
167.782389580974
 30
0.0
 11
-128.5214118016984
 21
167.782389580974
 31
0.0
 12
-127.731496816174
 22
173.782389580974
 32
0.0
 13
-127.731496816174
 23
173.782389580974
 33
0.0
  0
MTEXT
  5
4BA
330
4B4
100
AcDbEntity
  8
1
 62
     4
100
AcDbMText
 10
-131.731496816174
 20
175.945389580974
 30
0.0
 40
6.0
 41
0.0
 71
     7
 72
     1
  1
9
  7
CONVERTER_13
 11
0.0
 21
1.0
 31
0.0
 73
     1
 44
0.60024009603842
  0
ENDBLK
  5
4BC
330
4B4
100
AcDbEntity
  8
0
100
AcDbBlockEnd
  0
ENDSEC
  0
SECTION
  2
ENTITIES
  0
POINT
  5
49
330
1F
100
AcDbEntity
  8
1
 62
     7
100
AcDbPoint
 10
-455.421970554926
 20
173.782389580974
 30
0.0
  0
POINT
  5
4A
330
1F
100
AcDbEntity
  8
1
 62
     7
100
AcDbPoint
 10
-334.421970554926
 20
173.782389580974
 30
0.0
  0
POINT
  5
4B
330
1F
100
AcDbEntity
  8
1
 62
     7
100
AcDbPoint
 10
-256.67196871067
 20
173.782389580974
 30
0.0
  0
POINT
  5
4C
330
1F
100
AcDbEntity
  8
1
 62
     7
100
AcDbPoint
 10
-177.67196871067
 20
173.782389580974
 30
0.0
  0
POINT
  5
4D
330
1F
100
AcDbEntity
  8
1
 62
     7
100
AcDbPoint
 10
-262.17196871067
 20
182.782389580974
 30
0.0
  0
POINT
  5
4E
330
1F
100
AcDbEntity
  8
1
 62
     7
100
AcDbPoint
 10
-172.17196871067
 20
182.782389580974
 30
0.0
  0
POINT
  5
4F
330
1F
100
AcDbEntity
  8
1
 62
     7
100
AcDbPoint
 10
-172.17196871067
 20
182.782389580974
 30
0.0
  0
POINT
  5
50
330
1F
100
AcDbEntity
  8
1
 62
     7
100
AcDbPoint
 10
-180.671968710667
 20
280.782389580974
 30
0.0
  0
POINT
  5
51
330
1F
100
AcDbEntity
  8
1
 62
     7
100
AcDbPoint
 10
-192.171968710654
 20
300.282389580974
 30
0.0
  0
POINT
  5
52
330
1F
100
AcDbEntity
  8
1
 62
     7
100
AcDbPoint
 10
-172.17196871067
 20
182.782389580974
 30
0.0
  0
POINT
  5
53
330
1F
100
AcDbEntity
  8
1
 62
     7
100
AcDbPoint
 10
-419.921970554926
 20
300.282389580974
 30
0.0
  0
POINT
  5
54
330
1F
100
AcDbEntity
  8
1
 62
     7
100
AcDbPoint
 10
-369.921970554926
 20
300.282389580974
 30
0.0
  0
POINT
  5
55
330
1F
100
AcDbEntity
  8
1
 62
     7
100
AcDbPoint
 10
-470.171970554926
 20
189.032389580974
 30
0.0
  0
POINT
  5
56
330
1F
100
AcDbEntity
  8
1
 62
     7
100
AcDbPoint
 10
-319.671970554926
 20
189.032389580974
 30
0.0
  0
POINT
  5
57
330
1F
100
AcDbEntity
  8
1
 62
     7
100
AcDbPoint
 10
-177.67196871067
 20
173.782389580974
 30
0.0
  0
POINT
  5
58
330
1F
100
AcDbEntity
  8
1
 62
     7
100
AcDbPoint
 10
-172.17196871067
 20
182.782389580974
 30
0.0
  0
POINT
  5
59
330
1F
100
AcDbEntity
  8
Bemaßungen_TC_020513_DIN_
 62
     7
100
AcDbPoint
 10
-319.671970554926
 20
189.032389580974
 30
0.0
  0
POINT
  5
5A
330
1F
100
AcDbEntity
  8
Bemaßungen_TC_020513_DIN_
 62
     7
100
AcDbPoint
 10
-470.171970554926
 20
189.032389580974
 30
0.0
  0
POINT
  5
5B
330
1F
100
AcDbEntity
  8
Bemaßungen_TC_020513_DIN_
 62
     7
100
AcDbPoint
 10
-334.421970554926
 20
173.782389580974
 30
0.0
  0
POINT
  5
5C
330
1F
100
AcDbEntity
  8
Bemaßungen_TC_020513_DIN_
 62
     7
100
AcDbPoint
 10
-455.421970554926
 20
173.782389580974
 30
0.0
  0
POINT
  5
5D
330
1F
100
AcDbEntity
  8
Bemaßungen_TC_020513_DIN_
 62
     7
100
AcDbPoint
 10
-183.671968710672
 20
173.782389580974
 30
0.0
  0
POINT
  5
5E
330
1F
100
AcDbEntity
  8
Bemaßungen_TC_020513_DIN_
 62
     7
100
AcDbPoint
 10
-192.671968710654
 20
289.782389580974
 30
0.0
  0
POINT
  5
5F
330
1F
100
AcDbEntity
  8
Bemaßungen_TC_020513_DIN_
 62
     7
100
AcDbPoint
 10
-183.671968710667
 20
280.782389580974
 30
0.0
  0
POINT
  5
60
330
1F
100
AcDbEntity
  8
Bemaßungen_TC_020513_DIN_
 62
     7
100
AcDbPoint
 10
-183.671968710672
 20
173.782389580974
 30
0.0
  0
POINT
  5
61
330
1F
100
AcDbEntity
  8
Bemaßungen_TC_020513_DIN_
 62
     7
100
AcDbPoint
 10
-172.17196871067
 20
182.782389580974
 30
0.0
  0
POINT
  5
62
330
1F
100
AcDbEntity
  8
Bemaßungen_TC_020513_DIN_
 62
     7
100
AcDbPoint
 10
-262.17196871067
 20
182.782389580974
 30
0.0
  0
POINT
  5
63
330
1F
100
AcDbEntity
  8
Bemaßungen_TC_020513_DIN_
 62
     7
100
AcDbPoint
 10
-177.67196871067
 20
173.782389580974
 30
0.0
  0
POINT
  5
64
330
1F
100
AcDbEntity
  8
Bemaßungen_TC_020513_DIN_
 62
     7
100
AcDbPoint
 10
-256.67196871067
 20
173.782389580974
 30
0.0
  0
LINE
  5
200
330
1F
100
AcDbEntity
  8
1
  6
Continuous
 62
     7
100
AcDbLine
 10
-378.0
 20
9.99999999999977
 30
0.0
 11
-378.0
 21
80.0
 31
0.0
  0
LINE
  5
201
330
1F
100
AcDbEntity
  8
1
  6
Continuous
 62
     7
100
AcDbLine
 10
-378.0
 20
40.0
 30
0.0
 11
-10.0
 21
40.0
 31
0.0
  0
LINE
  5
202
330
1F
100
AcDbEntity
  8
1
  6
Continuous
 62
     7
100
AcDbLine
 10
-584.0
 20
378.0
 30
0.0
 11
-584.0
 21
10.0
 31
0.0
  0
LINE
  5
203
330
1F
100
AcDbEntity
  8
1
  6
Continuous
 62
     7
100
AcDbLine
 10
-328.0
 20
70.0
 30
0.0
 11
-328.0
 21
80.0
 31
0.0
  0
LINE
  5
204
330
1F
100
AcDbEntity
  8
1
  6
Continuous
 62
     7
100
AcDbLine
 10
-364.0
 20
70.0
 30
0.0
 11
-364.0
 21
80.0
 31
0.0
  0
LINE
  5
205
330
1F
100
AcDbEntity
  8
1
  6
Continuous
 62
     7
100
AcDbLine
 10
-378.0
 20
80.0
 30
0.0
 11
-10.0
 21
80.0
 31
0.0
  0
LINE
  5
206
330
1F
100
AcDbEntity
  8
1
  6
Continuous
 62
     7
100
AcDbLine
 10
-328.0
 20
60.0
 30
0.0
 11
-328.0
 21
70.0
 31
0.0
  0
LINE
  5
207
330
1F
100
AcDbEntity
  8
1
  6
Continuous
 62
     7
100
AcDbLine
 10
-364.0
 20
60.0
 30
0.0
 11
-364.0
 21
70.0
 31
0.0
  0
LINE
  5
208
330
1F
100
AcDbEntity
  8
1
  6
Continuous
 62
     7
100
AcDbLine
 10
-378.0
 20
70.0
 30
0.0
 11
-10.0
 21
70.0
 31
0.0
  0
LINE
  5
209
330
1F
100
AcDbEntity
  8
1
  6
Continuous
 62
     7
100
AcDbLine
 10
-328.0
 20
50.0
 30
0.0
 11
-328.0
 21
60.0
 31
0.0
  0
LINE
  5
20A
330
1F
100
AcDbEntity
  8
1
  6
Continuous
 62
     7
100
AcDbLine
 10
-364.0
 20
50.0
 30
0.0
 11
-364.0
 21
60.0
 31
0.0
  0
LINE
  5
20B
330
1F
100
AcDbEntity
  8
1
  6
Continuous
 62
     7
100
AcDbLine
 10
-378.0
 20
60.0
 30
0.0
 11
-10.0
 21
60.0
 31
0.0
  0
LINE
  5
20C
330
1F
100
AcDbEntity
  8
1
  6
Continuous
 62
     7
100
AcDbLine
 10
-328.0
 20
40.0
 30
0.0
 11
-328.0
 21
50.0
 31
0.0
  0
LINE
  5
20D
330
1F
100
AcDbEntity
  8
1
  6
Continuous
 62
     7
100
AcDbLine
 10
-364.0
 20
40.0
 30
0.0
 11
-364.0
 21
50.0
 31
0.0
  0
LINE
  5
20E
330
1F
100
AcDbEntity
  8
1
  6
Continuous
 62
     7
100
AcDbLine
 10
-378.0
 20
50.0
 30
0.0
 11
-10.0
 21
50.0
 31
0.0
  0
LINE
  5
20F
102
{ACAD_REACTORS
330
4BF
102
}
330
1F
100
AcDbEntity
  8
1
  6
Continuous
 62
     7
100
AcDbLine
 10
-28.3142503201884
 20
21.1160041607607
 30
0.0
 11
-30.9809169868549
 21
19.5775426222995
 31
0.0
  0
LINE
  5
210
102
{ACAD_REACTORS
330
4BF
102
}
330
1F
100
AcDbEntity
  8
1
  6
Continuous
 62
     7
100
AcDbLine
 10
-30.6473986225146
 20
21.3092730652959
 30
0.0
 11
-28.9805469248411
 21
22.2709182754925
 31
0.0
  0
LINE
  5
211
102
{ACAD_REACTORS
330
4BF
102
}
330
1F
100
AcDbEntity
  8
1
  6
Continuous
 62
     7
100
AcDbLine
 10
-30.6473986225146
 20
24.3333333333333
 30
0.0
 11
-30.6473986225146
 21
21.3092730652959
 31
0.0
  0
LINE
  5
212
102
{ACAD_REACTORS
330
4BF
102
}
330
1F
100
AcDbEntity
  8
1
  6
Continuous
 62
     7
100
AcDbLine
 10
-28.6473986225146
 20
24.3333333333333
 30
0.0
 11
-30.6473986225146
 21
24.3333333333333
 31
0.0
  0
LINE
  5
213
102
{ACAD_REACTORS
330
4BF
102
}
330
1F
100
AcDbEntity
  8
1
  6
Continuous
 62
     7
100
AcDbLine
 10
-30.6473986225146
 20
25.6666666666665
 30
0.0
 11
-28.6473986225146
 21
25.6666666666665
 31
0.0
  0
LINE
  5
214
102
{ACAD_REACTORS
330
4BF
102
}
330
1F
100
AcDbEntity
  8
1
  6
Continuous
 62
     7
100
AcDbLine
 10
-30.6473986225146
 20
28.6907269347039
 30
0.0
 11
-30.6473986225146
 21
25.6666666666665
 31
0.0
  0
LINE
  5
215
102
{ACAD_REACTORS
330
4BF
102
}
330
1F
100
AcDbEntity
  8
1
  6
Continuous
 62
     7
100
AcDbLine
 10
-28.9805469248411
 20
27.7290817245075
 30
0.0
 11
-30.6473986225146
 21
28.6907269347039
 31
0.0
  0
LINE
  5
216
102
{ACAD_REACTORS
330
4BF
102
}
330
1F
100
AcDbEntity
  8
1
  6
Continuous
 62
     7
100
AcDbLine
 10
-30.9809169868549
 20
30.4224573777005
 30
0.0
 11
-28.3142503201884
 21
28.8839958392389
 31
0.0
  0
LINE
  5
217
102
{ACAD_REACTORS
330
4C0
102
}
330
1F
100
AcDbEntity
  8
1
  6
Continuous
 62
     7
100
AcDbLine
 10
-45.3140652891814
 20
21.6934612181265
 30
0.0
 11
-45.3140652891814
 21
28.3065387818733
 31
0.0
  0
LINE
  5
218
102
{ACAD_REACTORS
330
4C0
102
}
330
1F
100
AcDbEntity
  8
1
  6
Continuous
 62
     7
100
AcDbLine
 10
-43.9807319558481
 20
22.0785038345266
 30
0.0
 11
-43.9807319558481
 21
21.6934612181265
 31
0.0
  0
LINE
  5
219
102
{ACAD_REACTORS
330
4C0
102
}
330
1F
100
AcDbEntity
  8
1
  6
Continuous
 62
     7
100
AcDbLine
 10
-43.9807319558481
 20
28.3065387818733
 30
0.0
 11
-43.9807319558481
 21
22.0785038345266
 31
0.0
  0
LINE
  5
21A
102
{ACAD_REACTORS
330
4C1
102
}
330
1F
100
AcDbEntity
  8
1
  6
Continuous
 62
     7
100
AcDbLine
 10
-37.6472135915078
 20
16.8852349299916
 30
0.0
 11
-41.980361893834
 21
19.3851281813338
 31
0.0
  0
LINE
  5
21B
102
{ACAD_REACTORS
330
4C1
102
}
330
1F
100
AcDbEntity
  8
1
  6
Continuous
 62
     7
100
AcDbLine
 10
-41.3140652891814
 20
20.5400422960654
 30
0.0
 11
-36.980916986855
 21
18.0401490447232
 31
0.0
  0
LINE
  5
21C
102
{ACAD_REACTORS
330
4C1
102
}
330
1F
100
AcDbEntity
  8
1
  6
Continuous
 62
     7
100
AcDbLine
 10
-41.3140652891814
 20
29.8450003203347
 30
0.0
 11
-41.3140652891814
 21
20.5400422960654
 31
0.0
  0
LINE
  5
21D
102
{ACAD_REACTORS
330
4C1
102
}
330
1F
100
AcDbEntity
  8
1
  6
Continuous
 62
     7
100
AcDbLine
 10
-42.6473986225146
 20
20.5400422960652
 30
0.0
 11
-42.6473986225146
 21
29.8450003203347
 31
0.0
  0
LINE
  5
21E
102
{ACAD_REACTORS
330
4C2
102
}
330
1F
100
AcDbEntity
  8
1
  6
Continuous
 62
     7
100
AcDbLine
 10
-34.3029326564281
 20
31.7274008365446
 30
0.0
 11
-36.6473986225146
 21
27.6666666666665
 31
0.0
  0
LINE
  5
21F
102
{ACAD_REACTORS
330
4C2
102
}
330
1F
100
AcDbEntity
  8
1
  6
Continuous
 62
     7
100
AcDbLine
 10
-33.3140652891814
 20
18.6165381412036
 30
0.0
 11
-33.3140652891814
 21
31.4624346240691
 31
0.0
  0
LINE
  5
220
102
{ACAD_REACTORS
330
4C2
102
}
330
1F
100
AcDbEntity
  8
1
  6
Continuous
 62
     7
100
AcDbLine
 10
-34.6473986225146
 20
25.0
 30
0.0
 11
-34.6473986225146
 21
18.6165381412036
 31
0.0
  0
LINE
  5
221
102
{ACAD_REACTORS
330
4C2
102
}
330
1F
100
AcDbEntity
  8
1
  6
Continuous
 62
     7
100
AcDbLine
 10
-38.6473986225146
 20
21.6951701452658
 30
0.0
 11
-38.6473986225146
 21
25.0
 31
0.0
  0
LINE
  5
222
102
{ACAD_REACTORS
330
4C2
102
}
330
1F
100
AcDbEntity
  8
1
  6
Continuous
 62
     7
100
AcDbLine
 10
-39.9807319558481
 20
25.0
 30
0.0
 11
-39.9807319558481
 21
21.6951701452658
 31
0.0
  0
LINE
  5
223
102
{ACAD_REACTORS
330
4C2
102
}
330
1F
100
AcDbEntity
  8
1
  6
Continuous
 62
     7
100
AcDbLine
 10
-38.9918645886012
 20
31.7274008365446
 30
0.0
 11
-36.6473986225146
 21
27.6666666666665
 31
0.0
  0
LINE
  5
224
102
{ACAD_REACTORS
330
4C2
102
}
330
1F
100
AcDbEntity
  8
1
  6
Continuous
 62
     7
100
AcDbLine
 10
-39.9807319558481
 20
25.0
 30
0.0
 11
-39.9807319558481
 21
31.4624346240691
 31
0.0
  0
LINE
  5
225
330
1F
100
AcDbEntity
  8
1
  6
Continuous
 62
     7
100
AcDbLine
 10
-36.6473986225146
 20
15.0
 30
0.0
 11
-53.4802691727978
 21
24.7112714713171
 31
0.0
  0
LINE
  5
226
330
1F
100
AcDbEntity
  8
1
  6
Continuous
 62
     7
100
AcDbLine
 10
-19.8145280722317
 20
24.7112714713171
 30
0.0
 11
-36.6473986225146
 21
15.0
 31
0.0
  0
LINE
  5
227
330
1F
100
AcDbEntity
  8
1
  6
Continuous
 62
     7
100
AcDbLine
 10
-36.6473986225146
 20
35.0
 30
0.0
 11
-19.8145280722317
 21
25.2887285286827
 31
0.0
  0
LINE
  5
228
330
1F
100
AcDbEntity
  8
1
  6
Continuous
 62
     7
100
AcDbLine
 10
-53.4802691727978
 20
25.2887285286827
 30
0.0
 11
-36.6473986225146
 21
35.0
 31
0.0
  0
LINE
  5
229
102
{ACAD_REACTORS
330
4C2
102
}
330
1F
100
AcDbEntity
  8
1
  6
Continuous
 62
     7
100
AcDbLine
 10
-38.6473986225146
 20
28.4641016151377
 30
0.0
 11
-38.6473986225146
 21
25.0
 31
0.0
  0
LINE
  5
22A
102
{ACAD_REACTORS
330
4C2
102
}
330
1F
100
AcDbEntity
  8
1
  6
Continuous
 62
     7
100
AcDbLine
 10
-36.9360737571096
 20
25.5
 30
0.0
 11
-38.6473986225146
 21
28.4641016151377
 31
0.0
  0
LINE
  5
22B
102
{ACAD_REACTORS
330
4C2
102
}
330
1F
100
AcDbEntity
  8
1
  6
Continuous
 62
     7
100
AcDbLine
 10
-34.6473986225146
 20
28.4641016151377
 30
0.0
 11
-36.3587234879199
 21
25.5
 31
0.0
  0
LINE
  5
22C
102
{ACAD_REACTORS
330
4C2
102
}
330
1F
100
AcDbEntity
  8
1
  6
Continuous
 62
     7
100
AcDbLine
 10
-34.6473986225146
 20
25.0
 30
0.0
 11
-34.6473986225146
 21
28.4641016151377
 31
0.0
  0
LINE
  5
22D
102
{ACAD_REACTORS
330
4BF
102
}
330
1F
100
AcDbEntity
  8
1
  6
Continuous
 62
     7
100
AcDbLine
 10
-31.9807319558479
 20
20.1549996796653
 30
0.0
 11
-31.9807319558479
 21
29.8450003203347
 31
0.0
  0
LINE
  5
22E
330
1F
100
AcDbEntity
  8
1
  6
Continuous
 62
     7
100
AcDbLine
 10
-10.0
 20
378.0
 30
0.0
 11
-584.0
 21
378.0
 31
0.0
  0
LINE
  5
22F
330
1F
100
AcDbEntity
  8
1
  6
Continuous
 62
     7
100
AcDbLine
 10
-10.0
 20
10.0
 30
0.0
 11
-10.0
 21
378.0
 31
0.0
  0
LINE
  5
230
330
1F
100
AcDbEntity
  8
1
  6
Continuous
 62
     7
100
AcDbLine
 10
-584.0
 20
10.0
 30
0.0
 11
-10.0
 21
10.0
 31
0.0
  0
LINE
  5
231
330
1F
100
AcDbEntity
  8
1
  6
Continuous
 62
     7
100
AcDbLine
 10
0.0
 20
0.0
 30
0.0
 11
0.0
 21
420.0
 31
0.0
  0
LINE
  5
232
330
1F
100
AcDbEntity
  8
1
  6
Continuous
 62
     7
100
AcDbLine
 10
0.0
 20
420.0
 30
0.0
 11
-594.0
 21
420.0
 31
0.0
  0
LINE
  5
233
330
1F
100
AcDbEntity
  8
1
  6
Continuous
 62
     7
100
AcDbLine
 10
-594.0
 20
420.0
 30
0.0
 11
-594.0
 21
0.0
 31
0.0
  0
LINE
  5
234
330
1F
100
AcDbEntity
  8
1
  6
Continuous
 62
     7
100
AcDbLine
 10
-594.0
 20
0.0
 30
0.0
 11
0.0
 21
0.0
 31
0.0
  0
LINE
  5
235
330
1F
100
AcDbEntity
  8
1
  6
Continuous
 62
     7
100
AcDbLine
 10
-297.000000000001
 20
420.0
 30
0.0
 11
-297.000000000001
 21
390.0
 31
0.0
  0
LINE
  5
236
330
1F
100
AcDbEntity
  8
1
  6
Continuous
 62
     7
100
AcDbLine
 10
-318.0
 20
40.0
 30
0.0
 11
-318.0
 21
10.0
 31
0.0
  0
LINE
  5
237
330
1F
100
AcDbEntity
  8
1
  6
Continuous
 62
     7
100
AcDbLine
 10
-63.2947972450293
 20
40.0
 30
0.0
 11
-63.2947972450293
 21
10.0
 31
0.0
  0
LINE
  5
238
330
1F
100
AcDbEntity
  8
1
  6
Continuous
 62
     7
100
AcDbLine
 10
-98.0
 20
40.0
 30
0.0
 11
-98.0
 21
10.0
 31
0.0
  0
LINE
  5
239
330
1F
100
AcDbEntity
  8
1
  6
Continuous
 62
     7
100
AcDbLine
 10
-378.0
 20
29.9999999999998
 30
0.0
 11
-318.0
 21
29.9999999999998
 31
0.0
  0
LINE
  5
23A
330
1F
100
AcDbEntity
  8
1
  6
Continuous
 62
     7
100
AcDbLine
 10
-378.0
 20
19.9999999999997
 30
0.0
 11
-318.0
 21
19.9999999999997
 31
0.0
  0
ARC
  5
263
102
{ACAD_REACTORS
330
4BF
102
}
330
1F
100
AcDbEntity
  8
1
  6
Continuous
 62
     7
100
AcDbCircle
 10
-31.3140652891814
 20
20.1549996796653
 30
0.0
 40
0.6666666666665009
100
AcDbArc
 50
180.0
 51
299.9816393688551
  0
ARC
  5
264
102
{ACAD_REACTORS
330
4BF
102
}
330
1F
100
AcDbEntity
  8
1
  6
Continuous
 62
     7
100
AcDbCircle
 10
-31.3140652891814
 20
29.8450003203347
 30
0.0
 40
0.6666666666667799
100
AcDbArc
 50
60.0183606311449
 51
180.0
  0
ARC
  5
265
330
1F
100
AcDbEntity
  8
1
  6
Continuous
 62
     7
100
AcDbCircle
 10
-19.9811022233948
 20
25.0
 30
0.0
 40
0.3333333333333154
100
AcDbArc
 50
299.9816393688329
 51
60.01836063115004
  0
ARC
  5
266
330
1F
100
AcDbEntity
  8
1
  6
Continuous
 62
     7
100
AcDbCircle
 10
-53.3136950216344
 20
25.0
 30
0.0
 40
0.3333333333332904
100
AcDbArc
 50
119.9816393688939
 51
240.0183606311232
  0
ARC
  5
267
102
{ACAD_REACTORS
330
4C1
102
}
330
1F
100
AcDbEntity
  8
1
  6
Continuous
 62
     7
100
AcDbCircle
 10
-41.3140652891814
 20
20.5400422960654
 30
0.0
 40
1.333333333333201
100
AcDbArc
 50
180.0000000000087
 51
240.0183606311598
  0
ARC
  5
268
102
{ACAD_REACTORS
330
4C2
102
}
330
1F
100
AcDbEntity
  8
1
  6
Continuous
 62
     7
100
AcDbCircle
 10
-36.6473986225146
 20
25.6666666666665
 30
0.0
 40
0.3333333333334091
100
AcDbArc
 50
209.9999999999596
 51
330.0000000000148
  0
ARC
  5
269
102
{ACAD_REACTORS
330
4BF
102
}
330
1F
100
AcDbEntity
  8
1
  6
Continuous
 62
     7
100
AcDbCircle
 10
-28.6473986225146
 20
21.6934612181265
 30
0.0
 40
0.6666666666666339
100
AcDbArc
 50
299.9816393688327
 51
119.9816393688464
  0
ARC
  5
26A
102
{ACAD_REACTORS
330
4BF
102
}
330
1F
100
AcDbEntity
  8
1
  6
Continuous
 62
     7
100
AcDbCircle
 10
-28.6473986225146
 20
25.0
 30
0.0
 40
0.6666666666666998
100
AcDbArc
 50
270.0
 51
90.0
  0
ARC
  5
26B
102
{ACAD_REACTORS
330
4BF
102
}
330
1F
100
AcDbEntity
  8
1
  6
Continuous
 62
     7
100
AcDbCircle
 10
-28.6473986225146
 20
28.3065387818733
 30
0.0
 40
0.666666666666783
100
AcDbArc
 50
240.018360631145
 51
60.01836063115858
  0
ARC
  5
26C
102
{ACAD_REACTORS
330
4C0
102
}
330
1F
100
AcDbEntity
  8
1
  6
Continuous
 62
     7
100
AcDbCircle
 10
-44.6473986225146
 20
21.6934612181265
 30
0.0
 40
0.6666666666667993
100
AcDbArc
 50
180.0
 51
0.0
  0
ARC
  5
26D
102
{ACAD_REACTORS
330
4C0
102
}
330
1F
100
AcDbEntity
  8
1
  6
Continuous
 62
     7
100
AcDbCircle
 10
-44.6473986225146
 20
28.3065387818733
 30
0.0
 40
0.6666666666665009
100
AcDbArc
 50
0.0
 51
180.0
  0
ARC
  5
26E
102
{ACAD_REACTORS
330
4C1
102
}
330
1F
100
AcDbEntity
  8
1
  6
Continuous
 62
     7
100
AcDbCircle
 10
-37.3140652891814
 20
17.4626919873574
 30
0.0
 40
0.6666666666667301
100
AcDbArc
 50
240.0183606311523
 51
60.01836063115248
  0
ARC
  5
26F
102
{ACAD_REACTORS
330
4C1
102
}
330
1F
100
AcDbEntity
  8
1
  6
Continuous
 62
     7
100
AcDbCircle
 10
-41.9807319558481
 20
29.8450003203347
 30
0.0
 40
0.6666666666666998
100
AcDbArc
 50
0.0
 51
180.0
  0
ARC
  5
270
102
{ACAD_REACTORS
330
4C2
102
}
330
1F
100
AcDbEntity
  8
1
  6
Continuous
 62
     7
100
AcDbCircle
 10
-33.843997714132
 20
31.4624346240691
 30
0.0
 40
0.5299324249506014
100
AcDbArc
 50
0.0
 51
149.9999999999698
  0
ARC
  5
271
102
{ACAD_REACTORS
330
4C2
102
}
330
1F
100
AcDbEntity
  8
1
  6
Continuous
 62
     7
100
AcDbCircle
 10
-33.9807319558479
 20
18.6165381412036
 30
0.0
 40
0.6666666666666998
100
AcDbArc
 50
180.0
 51
0.0
  0
ARC
  5
272
102
{ACAD_REACTORS
330
4C2
102
}
330
1F
100
AcDbEntity
  8
1
  6
Continuous
 62
     7
100
AcDbCircle
 10
-39.3140652891814
 20
21.6951701452658
 30
0.0
 40
0.6666666666666998
100
AcDbArc
 50
180.0
 51
0.0
  0
ARC
  5
273
102
{ACAD_REACTORS
330
4C2
102
}
330
1F
100
AcDbEntity
  8
1
  6
Continuous
 62
     7
100
AcDbCircle
 10
-39.4507995308975
 20
31.4624346240691
 30
0.0
 40
0.5299324249506872
100
AcDbArc
 50
30.00000000001949
 51
180.0
  0
SPLINE
  5
274
330
1F
100
AcDbEntity
  8
Sichtbare_Kanten_TC_020513_DIN_
  6
Continuous
 62
     7
100
AcDbSpline
210
0.0
220
0.0
230
1.0
 70
     8
 71
     3
 72
    11
 73
     7
 74
     5
 42
0.0000000001
 43
0.0000000001
 44
0.00000001
 40
0.0
 40
0.0
 40
0.0
 40
0.0
 40
1.046907305010923
 40
2.09381532587627
 40
2.870543881411689
 40
3.647271177309181
 40
3.647271177309181
 40
3.647271177309181
 40
3.647271177309181
 10
-342.401763764566
 20
220.050338773405
 30
0.0
 10
-342.051010785881
 20
220.0806296103057
 30
0.0
 10
-341.3495045886733
 20
220.1412113048194
 30
0.0
 10
-340.4839738410842
 20
220.5995699276335
 30
0.0
 10
-339.8200717294331
 20
221.1634528473286
 30
0.0
 10
-339.5047826679958
 20
221.5760774479527
 30
0.0
 10
-339.347138265105
 20
221.782389580974
 30
0.0
 11
-342.401763764566
 21
220.050338773405
 31
0.0
 11
-341.3670487721354
 21
220.2096491300192
 31
0.0
 11
-340.4302815727578
 21
220.6770714426257
 31
0.0
 11
-339.8404028584276
 21
221.1823934700145
 31
0.0
 11
-339.347138265105
 21
221.782389580974
 31
0.0
  0
SPLINE
  5
275
330
1F
100
AcDbEntity
  8
Sichtbare_Kanten_TC_020513_DIN_
  6
Continuous
 62
     7
100
AcDbSpline
210
0.0
220
0.0
230
1.0
 70
     8
 71
     3
 72
    11
 73
     7
 74
     5
 42
0.0000000001
 43
0.0000000001
 44
0.00000001
 40
0.0
 40
0.0
 40
0.0
 40
0.0
 40
1.116556460671532
 40
2.233112183021873
 40
2.940468166865176
 40
3.647819022710312
 40
3.647819022710312
 40
3.647819022710312
 40
3.647819022710312
 10
-450.496802844746
 20
221.782389580974
 30
0.0
 10
-450.2645190665019
 20
221.4891079050253
 30
0.0
 10
-449.7999516636107
 20
220.9025447470599
 30
0.0
 10
-448.9585951847489
 20
220.3625760292514
 30
0.0
 10
-448.1511344839399
 20
220.092087064117
 30
0.0
 10
-447.678495820434
 20
220.0642548366805
 30
0.0
 10
-447.442177345286
 20
220.050338773405
 30
0.0
 11
-450.496802844746
 21
221.782389580974
 31
0.0
 11
-449.7563531734874
 21
220.9466667715448
 31
0.0
 11
-448.8190465486167
 21
220.3399106656119
 31
0.0
 11
-448.1457943294469
 21
220.1229223312208
 31
0.0
 11
-447.442177345286
 21
220.050338773405
 31
0.0
  0
SPLINE
  5
276
330
1F
100
AcDbEntity
  8
Sichtbare_Kanten_TC_020513_DIN_
  6
Continuous
 62
     7
100
AcDbSpline
210
0.0
220
0.0
230
1.0
 70
     8
 71
     3
 72
    11
 73
     7
 74
     5
 42
0.0000000001
 43
0.0000000001
 44
0.00000001
 40
0.0
 40
0.0
 40
0.0
 40
0.0
 40
1.323921568992292
 40
2.647843036423603
 40
3.406440689520479
 40
4.165030154598131
 40
4.165030154598131
 40
4.165030154598131
 40
4.165030154598131
 10
-347.037279110175
 20
263.782389580974
 30
0.0
 10
-347.3719402298544
 20
264.0716923015002
 30
0.0
 10
-348.0412624435406
 20
264.6502977203596
 30
0.0
 10
-349.0557719633779
 20
265.184469069743
 30
0.0
 10
-349.9664886951867
 20
265.4671154761547
 30
0.0
 10
-350.4729483003911
 20
265.4986654745037
 30
0.0
 10
-350.726176736352
 20
265.514440388543
 30
0.0
 11
-347.037279110175
 21
263.782389580974
 31
0.0
 11
-348.0710777230646
 21
264.6094498864116
 31
0.0
 11
-349.2432671217904
 21
265.2248684963353
 31
0.0
 11
-349.9715227762608
 21
265.4372692991019
 31
0.0
 11
-350.726176736352
 21
265.514440388543
 31
0.0
  0
SPLINE
  5
277
330
1F
100
AcDbEntity
  8
Sichtbare_Kanten_TC_020513_DIN_
  6
Continuous
 62
     7
100
AcDbSpline
210
0.0
220
0.0
230
1.0
 70
     8
 71
     3
 72
    11
 73
     7
 74
     5
 42
0.0000000001
 43
0.0000000001
 44
0.00000001
 40
0.0
 40
0.0
 40
0.0
 40
0.0
 40
1.153491590728272
 40
2.306989948686577
 40
3.235482854670976
 40
4.163974826991827
 40
4.163974826991827
 40
4.163974826991827
 40
4.163974826991827
 10
-439.1177643735
 20
265.514440388543
 30
0.0
 10
-439.5031504796408
 20
265.4780425380448
 30
0.0
 10
-440.2739249528805
 20
265.4052466235119
 30
0.0
 10
-441.2666562584083
 20
264.9445208833152
 30
0.0
 10
-442.1105554069462
 20
264.3991381684958
 30
0.0
 10
-442.574626546542
 20
263.9879723745719
 30
0.0
 10
-442.806661999676
 20
263.782389580974
 30
0.0
 11
-439.1177643735
 21
265.514440388543
 31
0.0
 11
-440.2581904763587
 21
265.3413185996217
 31
0.0
 11
-441.3187543033329
 21
264.887707719322
 31
0.0
 11
-442.0964358638842
 21
264.3804499280147
 31
0.0
 11
-442.806661999676
 21
263.782389580974
 31
0.0
  0
LWPOLYLINE
  5
278
330
1F
100
AcDbEntity
  8
Sichtbare_Kanten_TC_020513_DIN_
  6
Continuous
 62
     7
100
AcDbPolyline
 90
        3
 70
     0
 43
0.5
 10
-213.171968710676
 20
191.282389580974
 42
1.0
 10
-221.171968710676
 20
191.282389580974
 42
1.0
 10
-213.171968710676
 20
191.282389580974
  0
LWPOLYLINE
  5
279
330
1F
100
AcDbEntity
  8
Sichtbare_Kanten_TC_020513_DIN_
  6
Continuous
 62
     7
100
AcDbPolyline
 90
        2
 70
     0
 43
0.5
 10
-253.671968710667
 20
280.782389580974
 42
0.4142135623731
 10
-256.671968710667
 20
277.782389580974
  0
LWPOLYLINE
  5
27A
330
1F
100
AcDbEntity
  8
Sichtbare_Kanten_TC_020513_DIN_
  6
Continuous
 62
     7
100
AcDbPolyline
 90
        2
 70
     0
 43
0.5
 10
-177.671968710667
 20
277.782389580974
 42
0.4142135623731
 10
-180.671968710667
 20
280.782389580974
  0
LWPOLYLINE
  5
27B
330
1F
100
AcDbEntity
  8
Sichtbare_Kanten_TC_020513_DIN_
  6
Continuous
 62
     7
100
AcDbPolyline
 90
        2
 70
     0
 43
0.5
 10
-208.671968710674
 20
191.282389580974
 42
1.0
 10
-225.671968710674
 20
191.282389580974
  0
LWPOLYLINE
  5
27C
330
1F
100
AcDbEntity
  8
Sichtbare_Kanten_TC_020513_DIN_
  6
Continuous
 62
     7
100
AcDbPolyline
 90
        2
 70
     0
 43
0.5
 10
-219.386127693225
 20
190.882389580974
 42
0.83553169152772
 10
-214.957809728128
 20
190.882389580974
  0
LWPOLYLINE
  5
27D
330
1F
100
AcDbEntity
  8
Sichtbare_Kanten_TC_020513_DIN_
  6
Continuous
 62
     7
100
AcDbPolyline
 90
        2
 70
     0
 43
0.5
 10
-214.957809728128
 20
191.682389580974
 42
0.83553169152773
 10
-219.386127693225
 20
191.682389580974
  0
LWPOLYLINE
  5
27E
330
1F
100
AcDbEntity
  8
Sichtbare_Kanten_TC_020513_DIN_
  6
Continuous
 62
     7
100
AcDbPolyline
 90
        2
 70
     0
 43
0.5
 10
-214.957809728128
 20
190.882389580974
 42
0.08960254362888
 10
-214.957809728128
 20
191.682389580974
  0
LWPOLYLINE
  5
27F
330
1F
100
AcDbEntity
  8
Sichtbare_Kanten_TC_020513_DIN_
  6
Continuous
 62
     7
100
AcDbPolyline
 90
        2
 70
     0
 43
0.5
 10
-219.386127693225
 20
191.682389580974
 42
0.08960254362884
 10
-219.386127693225
 20
190.882389580974
  0
LWPOLYLINE
  5
280
330
1F
100
AcDbEntity
  8
Sichtbare_Kanten_TC_020513_DIN_
  6
Continuous
 62
     7
100
AcDbPolyline
 90
        2
 70
     0
 43
0.5
 10
-214.290562803831
 20
188.882389580974
 42
2.13437474581085
 10
-220.053374617521
 20
188.882389580974
  0
LWPOLYLINE
  5
281
330
1F
100
AcDbEntity
  8
Sichtbare_Kanten_TC_020513_DIN_
  6
Continuous
 62
     7
100
AcDbPolyline
 90
        2
 70
     0
 43
0.5
 10
-215.251031439446
 20
189.682389580974
 42
1.00000000000049
 10
-214.290562803831
 20
188.882389580974
  0
LWPOLYLINE
  5
282
330
1F
100
AcDbEntity
  8
Sichtbare_Kanten_TC_020513_DIN_
  6
Continuous
 62
     7
100
AcDbPolyline
 90
        2
 70
     0
 43
0.5
 10
-215.251031439446
 20
189.682389580974
 42
0.03722887321943
 10
-215.034995329001
 20
189.984951811363
  0
LWPOLYLINE
  5
283
330
1F
100
AcDbEntity
  8
Sichtbare_Kanten_TC_020513_DIN_
  6
Continuous
 62
     7
100
AcDbPolyline
 90
        2
 70
     0
 43
0.5
 10
-215.227658495562
 20
190.150065516316
 42
0.06707285614619
 10
-215.034995329001
 20
189.984951811363
  0
LWPOLYLINE
  5
284
330
1F
100
AcDbEntity
  8
Sichtbare_Kanten_TC_020513_DIN_
  6
Continuous
 62
     7
100
AcDbPolyline
 90
        2
 70
     0
 43
0.5
 10
-214.951701812268
 20
191.646964538745
 42
0.29635834283706
 10
-214.83865604659
 20
192.179970781544
  0
LWPOLYLINE
  5
285
330
1F
100
AcDbEntity
  8
Sichtbare_Kanten_TC_020513_DIN_
  6
Continuous
 62
     7
100
AcDbPolyline
 90
        2
 70
     0
 43
0.5
 10
-214.83865604659
 20
192.179970781544
 42
0.16396458783962
 10
-215.857817458462
 20
193.409125692085
  0
LWPOLYLINE
  5
286
330
1F
100
AcDbEntity
  8
Sichtbare_Kanten_TC_020513_DIN_
  6
Continuous
 62
     7
100
AcDbPolyline
 90
        2
 70
     0
 43
0.5
 10
-215.857817458462
 20
193.409125692085
 42
0.29635834283623
 10
-216.4025390353
 20
193.396740066265
  0
LWPOLYLINE
  5
287
330
1F
100
AcDbEntity
  8
Sichtbare_Kanten_TC_020513_DIN_
  6
Continuous
 62
     7
100
AcDbPolyline
 90
        2
 70
     0
 43
0.5
 10
-217.941398386052
 20
193.396740066265
 42
0.29635834283623
 10
-218.48611996289
 20
193.409125692085
  0
LWPOLYLINE
  5
288
330
1F
100
AcDbEntity
  8
Sichtbare_Kanten_TC_020513_DIN_
  6
Continuous
 62
     7
100
AcDbPolyline
 90
        2
 70
     0
 43
0.5
 10
-218.48611996289
 20
193.409125692085
 42
0.16396458783958
 10
-219.505281374761
 20
192.179970781544
  0
LWPOLYLINE
  5
289
330
1F
100
AcDbEntity
  8
Sichtbare_Kanten_TC_020513_DIN_
  6
Continuous
 62
     7
100
AcDbPolyline
 90
        2
 70
     0
 43
0.5
 10
-219.505281374761
 20
192.179970781544
 42
0.29635834283677
 10
-219.392235609084
 20
191.646964538745
  0
LWPOLYLINE
  5
28A
330
1F
100
AcDbEntity
  8
Sichtbare_Kanten_TC_020513_DIN_
  6
Continuous
 62
     7
100
AcDbPolyline
 90
        2
 70
     0
 43
0.5
 10
-219.308942092351
 20
189.984951811363
 42
0.03722887321943
 10
-219.092905981906
 20
189.682389580974
  0
LWPOLYLINE
  5
28B
330
1F
100
AcDbEntity
  8
Sichtbare_Kanten_TC_020513_DIN_
  6
Continuous
 62
     7
100
AcDbPolyline
 90
        2
 70
     0
 43
0.5
 10
-220.053374617521
 20
188.882389580974
 42
1.00000000000049
 10
-219.092905981906
 20
189.682389580974
  0
LWPOLYLINE
  5
28C
330
1F
100
AcDbEntity
  8
Sichtbare_Kanten_TC_020513_DIN_
  6
Continuous
 62
     7
100
AcDbPolyline
 90
        2
 70
     0
 43
0.5
 10
-219.308942092351
 20
189.984951811363
 42
0.06707285614619
 10
-219.11627892579
 20
190.150065516316
  0
LWPOLYLINE
  5
28D
330
1F
100
AcDbEntity
  8
Sichtbare_Kanten_TC_020513_DIN_
  6
Continuous
 62
     7
100
AcDbPolyline
 90
        2
 70
     0
 43
0.5
 10
-439.92139324237
 20
280.782389580974
 42
0.36211415863066
 10
-442.87233570544
 20
278.322702989705
  0
LWPOLYLINE
  5
28E
330
1F
100
AcDbEntity
  8
Sichtbare_Kanten_TC_020513_DIN_
  6
Continuous
 62
     7
100
AcDbPolyline
 90
        2
 70
     0
 43
0.5
 10
-346.971605404412
 20
278.322702989705
 42
0.36211415863064
 10
-349.922547867481
 20
280.782389580974
  0
LWPOLYLINE
  5
28F
330
1F
100
AcDbEntity
  8
Sichtbare_Kanten_TC_020513_DIN_
  6
Continuous
 62
     7
100
AcDbPolyline
 90
        2
 70
     0
 43
0.5
 10
-334.421970554926
 20
209.237622013062
 42
0.04530412103549
 10
-334.520085628787
 20
210.318248830524
  0
LWPOLYLINE
  5
290
330
1F
100
AcDbEntity
  8
Sichtbare_Kanten_TC_020513_DIN_
  6
Continuous
 62
     7
100
AcDbPolyline
 90
        2
 70
     0
 43
0.5
 10
-455.323855481064
 20
210.318248830524
 42
0.04530412103549
 10
-455.421970554926
 20
209.237622013062
  0
LWPOLYLINE
  5
291
330
1F
100
AcDbEntity
  8
Sichtbare_Kanten_TC_020513_DIN_
  6
Continuous
 62
     7
100
AcDbPolyline
 90
        2
 70
     0
 43
0.5
 10
-396.796970554926
 20
243.69561053461
 42
1.0
 10
-396.046970554926
 20
243.69561053461
  0
LWPOLYLINE
  5
292
330
1F
100
AcDbEntity
  8
Sichtbare_Kanten_TC_020513_DIN_
  6
Continuous
 62
     7
100
AcDbPolyline
 90
        2
 70
     0
 43
0.5
 10
-396.118241695435
 20
249.063147489694
 42
0.72714551713834
 10
-396.796970554926
 20
248.843207088875
  0
LWPOLYLINE
  5
293
330
1F
100
AcDbEntity
  8
Sichtbare_Kanten_TC_020513_DIN_
  6
Continuous
 62
     7
100
AcDbPolyline
 90
        2
 70
     0
 43
0.5
 10
-393.046970554926
 20
248.843207088875
 42
0.7271455171377
 10
-393.725699414416
 20
249.063147489694
  0
LWPOLYLINE
  5
294
330
1F
100
AcDbEntity
  8
Sichtbare_Kanten_TC_020513_DIN_
  6
Continuous
 62
     7
100
AcDbPolyline
 90
        2
 70
     0
 43
0.5
 10
-393.796970554926
 20
241.921572073072
 42
1.0
 10
-393.046970554926
 20
241.921572073072
  0
LWPOLYLINE
  5
295
330
1F
100
AcDbEntity
  8
Sichtbare_Kanten_TC_020513_DIN_
  6
Continuous
 62
     7
100
AcDbPolyline
 90
        2
 70
     0
 43
0.5
 10
-397.621970554926
 20
247.934553242721
 42
1.0
 10
-398.371970554926
 20
247.934553242721
  0
LWPOLYLINE
  5
296
330
1F
100
AcDbEntity
  8
Sichtbare_Kanten_TC_020513_DIN_
  6
Continuous
 62
     7
100
AcDbPolyline
 90
        2
 70
     0
 43
0.5
 10
-395.109366481829
 20
240.731367866868
 42
1.00000001053464
 10
-394.734574634867
 20
241.381007052456
  0
LWPOLYLINE
  5
297
330
1F
100
AcDbEntity
  8
Sichtbare_Kanten_TC_020513_DIN_
  6
Continuous
 62
     7
100
AcDbPolyline
 90
        2
 70
     0
 43
0.5
 10
-398.371970554926
 20
242.830225919226
 42
0.26803505952234
 10
-398.184366474984
 20
242.505406324458
  0
LWPOLYLINE
  5
298
330
1F
100
AcDbEntity
  8
Sichtbare_Kanten_TC_020513_DIN_
  6
Continuous
 62
     7
100
AcDbPolyline
 90
        2
 70
     0
 43
0.5
 10
-399.871970554926
 20
243.69561053461
 42
1.0
 10
-399.121970554926
 20
243.69561053461
  0
LWPOLYLINE
  5
299
330
1F
100
AcDbEntity
  8
Sichtbare_Kanten_TC_020513_DIN_
  6
Continuous
 62
     7
100
AcDbPolyline
 90
        2
 70
     0
 43
0.5
 10
-399.121970554926
 20
247.069168627337
 42
1.0
 10
-399.871970554926
 20
247.069168627337
  0
LWPOLYLINE
  5
29A
330
1F
100
AcDbEntity
  8
Sichtbare_Kanten_TC_020513_DIN_
  6
Continuous
 62
     7
100
AcDbPolyline
 90
        2
 70
     0
 43
0.5
 10
-391.734574634867
 20
248.302642068259
 42
0.57724345630819
 10
-392.296970554926
 20
247.977822473491
  0
LWPOLYLINE
  5
29B
330
1F
100
AcDbEntity
  8
Sichtbare_Kanten_TC_020513_DIN_
  6
Continuous
 62
     7
100
AcDbPolyline
 90
        2
 70
     0
 43
0.5
 10
-390.609366474984
 20
246.787618263338
 42
0.99999999999871
 10
-390.234574634867
 20
247.437257452874
  0
LWPOLYLINE
  5
29C
330
1F
100
AcDbEntity
  8
Sichtbare_Kanten_TC_020513_DIN_
  6
Continuous
 62
     7
100
AcDbPolyline
 90
        2
 70
     0
 43
0.5
 10
-390.421970554926
 20
245.007389580974
 42
1.0
 10
-390.421970554926
 20
245.757389580974
  0
LWPOLYLINE
  5
29D
330
1F
100
AcDbEntity
  8
Sichtbare_Kanten_TC_020513_DIN_
  6
Continuous
 62
     7
100
AcDbPolyline
 90
        2
 70
     0
 43
0.5
 10
-390.234574634867
 20
243.327521709073
 42
0.99999999999869
 10
-390.609366474984
 20
243.977160898609
  0
LWPOLYLINE
  5
29E
330
1F
100
AcDbEntity
  8
Sichtbare_Kanten_TC_020513_DIN_
  6
Continuous
 62
     7
100
AcDbPolyline
 90
        2
 70
     0
 43
0.5
 10
-392.296970554926
 20
242.786956688457
 42
0.57724345630774
 10
-391.734574634867
 20
242.462137093688
  0
LWPOLYLINE
  5
29F
330
1F
100
AcDbEntity
  8
Sichtbare_Kanten_TC_020513_DIN_
  6
Continuous
 62
     7
100
AcDbPolyline
 90
        2
 70
     0
 43
0.5
 10
-455.421970554926
 20
209.237622013062
 10
-455.421970554926
 20
208.689530304341
  0
LWPOLYLINE
  5
2A0
330
1F
100
AcDbEntity
  8
Sichtbare_Kanten_TC_020513_DIN_
  6
Continuous
 62
     7
100
AcDbPolyline
 90
        2
 70
     0
 43
0.5
 10
-334.421970554926
 20
208.982389580974
 10
-334.421970554926
 20
209.237622013062
  0
LWPOLYLINE
  5
2A1
330
1F
100
AcDbEntity
  8
Sichtbare_Kanten_TC_020513_DIN_
  6
Continuous
 62
     7
100
AcDbPolyline
 90
        2
 70
     0
 43
0.5
 10
-183.671968710667
 20
280.782389580974
 10
-250.671968710667
 20
280.782389580974
  0
LWPOLYLINE
  5
2A2
330
1F
100
AcDbEntity
  8
Sichtbare_Kanten_TC_020513_DIN_
  6
Continuous
 62
     7
100
AcDbPolyline
 90
        2
 70
     0
 43
0.5
 10
-253.671968710667
 20
280.782389580974
 10
-250.671968710667
 20
280.782389580974
  0
LWPOLYLINE
  5
2A3
330
1F
100
AcDbEntity
  8
Sichtbare_Kanten_TC_020513_DIN_
  6
Continuous
 62
     7
100
AcDbPolyline
 90
        2
 70
     0
 43
0.5
 10
-183.671968710667
 20
280.782389580974
 10
-180.671968710667
 20
280.782389580974
  0
LWPOLYLINE
  5
2A4
330
1F
100
AcDbEntity
  8
Sichtbare_Kanten_TC_020513_DIN_
  6
Continuous
 62
     7
100
AcDbPolyline
 90
        2
 70
     0
 43
0.5
 10
-178.67196871067
 20
195.282389580974
 10
-178.67196871067
 20
196.282389580974
  0
LWPOLYLINE
  5
2A5
330
1F
100
AcDbEntity
  8
Sichtbare_Kanten_TC_020513_DIN_
  6
Continuous
 62
     7
100
AcDbPolyline
 90
        2
 70
     0
 43
0.5
 10
-178.67196871067
 20
198.282389580974
 10
-178.67196871067
 20
199.282389580974
  0
LWPOLYLINE
  5
2A6
330
1F
100
AcDbEntity
  8
Sichtbare_Kanten_TC_020513_DIN_
  6
Continuous
 62
     7
100
AcDbPolyline
 90
        2
 70
     0
 43
0.5
 10
-178.67196871067
 20
201.282389580974
 10
-178.67196871067
 20
202.282389580974
  0
LWPOLYLINE
  5
2A7
330
1F
100
AcDbEntity
  8
Sichtbare_Kanten_TC_020513_DIN_
  6
Continuous
 62
     7
100
AcDbPolyline
 90
        2
 70
     0
 43
0.5
 10
-178.67196871067
 20
204.282389580974
 10
-178.67196871067
 20
205.282389580974
  0
LWPOLYLINE
  5
2A8
330
1F
100
AcDbEntity
  8
Sichtbare_Kanten_TC_020513_DIN_
  6
Continuous
 62
     7
100
AcDbPolyline
 90
        2
 70
     0
 43
0.5
 10
-178.67196871067
 20
207.282389580974
 10
-178.67196871067
 20
208.282389580974
  0
LWPOLYLINE
  5
2A9
330
1F
100
AcDbEntity
  8
Sichtbare_Kanten_TC_020513_DIN_
  6
Continuous
 62
     7
100
AcDbPolyline
 90
        2
 70
     0
 43
0.5
 10
-255.67196871067
 20
195.282389580974
 10
-255.67196871067
 20
196.282389580974
  0
LWPOLYLINE
  5
2AA
330
1F
100
AcDbEntity
  8
Sichtbare_Kanten_TC_020513_DIN_
  6
Continuous
 62
     7
100
AcDbPolyline
 90
        2
 70
     0
 43
0.5
 10
-255.67196871067
 20
198.282389580974
 10
-255.67196871067
 20
199.282389580974
  0
LWPOLYLINE
  5
2AB
330
1F
100
AcDbEntity
  8
Sichtbare_Kanten_TC_020513_DIN_
  6
Continuous
 62
     7
100
AcDbPolyline
 90
        2
 70
     0
 43
0.5
 10
-255.67196871067
 20
201.282389580974
 10
-255.67196871067
 20
202.282389580974
  0
LWPOLYLINE
  5
2AC
330
1F
100
AcDbEntity
  8
Sichtbare_Kanten_TC_020513_DIN_
  6
Continuous
 62
     7
100
AcDbPolyline
 90
        2
 70
     0
 43
0.5
 10
-255.67196871067
 20
204.282389580974
 10
-255.67196871067
 20
205.282389580974
  0
LWPOLYLINE
  5
2AD
330
1F
100
AcDbEntity
  8
Sichtbare_Kanten_TC_020513_DIN_
  6
Continuous
 62
     7
100
AcDbPolyline
 90
        2
 70
     0
 43
0.5
 10
-255.67196871067
 20
207.282389580974
 10
-255.67196871067
 20
208.282389580974
  0
LWPOLYLINE
  5
2AE
330
1F
100
AcDbEntity
  8
Sichtbare_Kanten_TC_020513_DIN_
  6
Continuous
 62
     7
100
AcDbPolyline
 90
        2
 70
     0
 43
0.5
 10
-223.171968710672
 20
173.782389580974
 10
-250.671968710672
 20
173.782389580974
  0
LWPOLYLINE
  5
2AF
330
1F
100
AcDbEntity
  8
Sichtbare_Kanten_TC_020513_DIN_
  6
Continuous
 62
     7
100
AcDbPolyline
 90
        2
 70
     0
 43
0.5
 10
-183.671968710672
 20
173.782389580974
 10
-211.171968710672
 20
173.782389580974
  0
LWPOLYLINE
  5
2B0
330
1F
100
AcDbEntity
  8
Sichtbare_Kanten_TC_020513_DIN_
  6
Continuous
 62
     7
100
AcDbPolyline
 90
        2
 70
     0
 43
0.5
 10
-218.671968710672
 20
199.648989846314
 10
-218.671968710672
 20
199.982389580974
  0
LWPOLYLINE
  5
2B1
330
1F
100
AcDbEntity
  8
Sichtbare_Kanten_TC_020513_DIN_
  6
Continuous
 62
     7
100
AcDbPolyline
 90
        2
 70
     0
 43
0.5
 10
-218.671968710672
 20
200.582389580974
 10
-218.671968710672
 20
202.982389580974
  0
LWPOLYLINE
  5
2B2
330
1F
100
AcDbEntity
  8
Sichtbare_Kanten_TC_020513_DIN_
  6
Continuous
 62
     7
100
AcDbPolyline
 90
        2
 70
     0
 43
0.5
 10
-218.671968710672
 20
203.582389580974
 10
-218.671968710672
 20
205.982389580973
  0
LWPOLYLINE
  5
2B3
330
1F
100
AcDbEntity
  8
Sichtbare_Kanten_TC_020513_DIN_
  6
Continuous
 62
     7
100
AcDbPolyline
 90
        2
 70
     0
 43
0.5
 10
-218.671968710672
 20
206.582389580974
 10
-218.671968710672
 20
208.982389580974
  0
LWPOLYLINE
  5
2B4
330
1F
100
AcDbEntity
  8
Sichtbare_Kanten_TC_020513_DIN_
  6
Continuous
 62
     7
100
AcDbPolyline
 90
        2
 70
     0
 43
0.5
 10
-215.671968710672
 20
208.982389580974
 10
-215.671968710672
 20
206.582389580974
  0
LWPOLYLINE
  5
2B5
330
1F
100
AcDbEntity
  8
Sichtbare_Kanten_TC_020513_DIN_
  6
Continuous
 62
     7
100
AcDbPolyline
 90
        2
 70
     0
 43
0.5
 10
-215.671968710672
 20
205.982389580973
 10
-215.671968710672
 20
203.582389580974
  0
LWPOLYLINE
  5
2B6
330
1F
100
AcDbEntity
  8
Sichtbare_Kanten_TC_020513_DIN_
  6
Continuous
 62
     7
100
AcDbPolyline
 90
        2
 70
     0
 43
0.5
 10
-215.671968710672
 20
202.982389580974
 10
-215.671968710672
 20
200.582389580974
  0
LWPOLYLINE
  5
2B7
330
1F
100
AcDbEntity
  8
Sichtbare_Kanten_TC_020513_DIN_
  6
Continuous
 62
     7
100
AcDbPolyline
 90
        2
 70
     0
 43
0.5
 10
-215.671968710672
 20
199.982389580974
 10
-215.671968710672
 20
199.648989846314
  0
LWPOLYLINE
  5
2B8
330
1F
100
AcDbEntity
  8
Sichtbare_Kanten_TC_020513_DIN_
  6
Continuous
 62
     7
100
AcDbPolyline
 90
        2
 70
     0
 43
0.5
 10
-177.67196871067
 20
194.582389580974
 10
-183.671968710672
 20
194.582389580974
  0
LWPOLYLINE
  5
2B9
330
1F
100
AcDbEntity
  8
Sichtbare_Kanten_TC_020513_DIN_
  6
Continuous
 62
     7
100
AcDbPolyline
 90
        2
 70
     0
 43
0.5
 10
-178.37196871067
 20
195.282389580974
 10
-177.67196871067
 20
194.582389580974
  0
LWPOLYLINE
  5
2BA
330
1F
100
AcDbEntity
  8
Sichtbare_Kanten_TC_020513_DIN_
  6
Continuous
 62
     7
100
AcDbPolyline
 90
        2
 70
     0
 43
0.5
 10
-177.67196871067
 20
196.982389580974
 10
-178.37196871067
 20
196.282389580974
  0
LWPOLYLINE
  5
2BB
330
1F
100
AcDbEntity
  8
Sichtbare_Kanten_TC_020513_DIN_
  6
Continuous
 62
     7
100
AcDbPolyline
 90
        2
 70
     0
 43
0.5
 10
-183.671968710672
 20
196.982389580974
 10
-177.67196871067
 20
196.982389580974
  0
LWPOLYLINE
  5
2BC
330
1F
100
AcDbEntity
  8
Sichtbare_Kanten_TC_020513_DIN_
  6
Continuous
 62
     7
100
AcDbPolyline
 90
        2
 70
     0
 43
0.5
 10
-177.67196871067
 20
197.582389580974
 10
-183.671968710672
 20
197.582389580974
  0
LWPOLYLINE
  5
2BD
330
1F
100
AcDbEntity
  8
Sichtbare_Kanten_TC_020513_DIN_
  6
Continuous
 62
     7
100
AcDbPolyline
 90
        2
 70
     0
 43
0.5
 10
-178.37196871067
 20
198.282389580974
 10
-177.67196871067
 20
197.582389580974
  0
LWPOLYLINE
  5
2BE
330
1F
100
AcDbEntity
  8
Sichtbare_Kanten_TC_020513_DIN_
  6
Continuous
 62
     7
100
AcDbPolyline
 90
        2
 70
     0
 43
0.5
 10
-177.67196871067
 20
199.982389580974
 10
-178.37196871067
 20
199.282389580974
  0
LWPOLYLINE
  5
2BF
330
1F
100
AcDbEntity
  8
Sichtbare_Kanten_TC_020513_DIN_
  6
Continuous
 62
     7
100
AcDbPolyline
 90
        2
 70
     0
 43
0.5
 10
-183.671968710672
 20
199.982389580974
 10
-177.67196871067
 20
199.982389580974
  0
LWPOLYLINE
  5
2C0
330
1F
100
AcDbEntity
  8
Sichtbare_Kanten_TC_020513_DIN_
  6
Continuous
 62
     7
100
AcDbPolyline
 90
        2
 70
     0
 43
0.5
 10
-183.671968710672
 20
201.282389580974
 10
-215.671968710672
 20
201.282389580974
  0
LWPOLYLINE
  5
2C1
330
1F
100
AcDbEntity
  8
Sichtbare_Kanten_TC_020513_DIN_
  6
Continuous
 62
     7
100
AcDbPolyline
 90
        2
 70
     0
 43
0.5
 10
-183.671968710672
 20
201.282389580974
 10
-178.37196871067
 20
201.282389580974
  0
LWPOLYLINE
  5
2C2
330
1F
100
AcDbEntity
  8
Sichtbare_Kanten_TC_020513_DIN_
  6
Continuous
 62
     7
100
AcDbPolyline
 90
        2
 70
     0
 43
0.5
 10
-177.67196871067
 20
200.582389580974
 10
-183.671968710672
 20
200.582389580974
  0
LWPOLYLINE
  5
2C3
330
1F
100
AcDbEntity
  8
Sichtbare_Kanten_TC_020513_DIN_
  6
Continuous
 62
     7
100
AcDbPolyline
 90
        2
 70
     0
 43
0.5
 10
-178.37196871067
 20
201.282389580974
 10
-177.67196871067
 20
200.582389580974
  0
LWPOLYLINE
  5
2C4
330
1F
100
AcDbEntity
  8
Sichtbare_Kanten_TC_020513_DIN_
  6
Continuous
 62
     7
100
AcDbPolyline
 90
        2
 70
     0
 43
0.5
 10
-178.37196871067
 20
202.282389580974
 10
-183.671968710672
 20
202.282389580974
  0
LWPOLYLINE
  5
2C5
330
1F
100
AcDbEntity
  8
Sichtbare_Kanten_TC_020513_DIN_
  6
Continuous
 62
     7
100
AcDbPolyline
 90
        2
 70
     0
 43
0.5
 10
-183.671968710672
 20
202.982389580974
 10
-177.67196871067
 20
202.982389580974
  0
LWPOLYLINE
  5
2C6
330
1F
100
AcDbEntity
  8
Sichtbare_Kanten_TC_020513_DIN_
  6
Continuous
 62
     7
100
AcDbPolyline
 90
        2
 70
     0
 43
0.5
 10
-178.37196871067
 20
202.282389580974
 10
-177.67196871067
 20
202.982389580974
  0
LWPOLYLINE
  5
2C7
330
1F
100
AcDbEntity
  8
Sichtbare_Kanten_TC_020513_DIN_
  6
Continuous
 62
     7
100
AcDbPolyline
 90
        2
 70
     0
 43
0.5
 10
-215.671968710672
 20
202.282389580974
 10
-183.671968710672
 20
202.282389580974
  0
LWPOLYLINE
  5
2C8
330
1F
100
AcDbEntity
  8
Sichtbare_Kanten_TC_020513_DIN_
  6
Continuous
 62
     7
100
AcDbPolyline
 90
        2
 70
     0
 43
0.5
 10
-183.671968710672
 20
204.282389580974
 10
-215.671968710672
 20
204.282389580974
  0
LWPOLYLINE
  5
2C9
330
1F
100
AcDbEntity
  8
Sichtbare_Kanten_TC_020513_DIN_
  6
Continuous
 62
     7
100
AcDbPolyline
 90
        2
 70
     0
 43
0.5
 10
-183.671968710672
 20
204.282389580974
 10
-178.37196871067
 20
204.282389580974
  0
LWPOLYLINE
  5
2CA
330
1F
100
AcDbEntity
  8
Sichtbare_Kanten_TC_020513_DIN_
  6
Continuous
 62
     7
100
AcDbPolyline
 90
        2
 70
     0
 43
0.5
 10
-177.67196871067
 20
203.582389580974
 10
-183.671968710672
 20
203.582389580974
  0
LWPOLYLINE
  5
2CB
330
1F
100
AcDbEntity
  8
Sichtbare_Kanten_TC_020513_DIN_
  6
Continuous
 62
     7
100
AcDbPolyline
 90
        2
 70
     0
 43
0.5
 10
-178.37196871067
 20
204.282389580974
 10
-177.67196871067
 20
203.582389580974
  0
LWPOLYLINE
  5
2CC
330
1F
100
AcDbEntity
  8
Sichtbare_Kanten_TC_020513_DIN_
  6
Continuous
 62
     7
100
AcDbPolyline
 90
        2
 70
     0
 43
0.5
 10
-215.671968710672
 20
205.282389580974
 10
-183.671968710672
 20
205.282389580974
  0
LWPOLYLINE
  5
2CD
330
1F
100
AcDbEntity
  8
Sichtbare_Kanten_TC_020513_DIN_
  6
Continuous
 62
     7
100
AcDbPolyline
 90
        2
 70
     0
 43
0.5
 10
-178.37196871067
 20
205.282389580974
 10
-183.671968710672
 20
205.282389580974
  0
LWPOLYLINE
  5
2CE
330
1F
100
AcDbEntity
  8
Sichtbare_Kanten_TC_020513_DIN_
  6
Continuous
 62
     7
100
AcDbPolyline
 90
        2
 70
     0
 43
0.5
 10
-177.67196871067
 20
205.982389580973
 10
-178.37196871067
 20
205.282389580974
  0
LWPOLYLINE
  5
2CF
330
1F
100
AcDbEntity
  8
Sichtbare_Kanten_TC_020513_DIN_
  6
Continuous
 62
     7
100
AcDbPolyline
 90
        2
 70
     0
 43
0.5
 10
-183.671968710672
 20
205.982389580973
 10
-177.67196871067
 20
205.982389580973
  0
LWPOLYLINE
  5
2D0
330
1F
100
AcDbEntity
  8
Sichtbare_Kanten_TC_020513_DIN_
  6
Continuous
 62
     7
100
AcDbPolyline
 90
        2
 70
     0
 43
0.5
 10
-183.671968710672
 20
207.282389580974
 10
-215.671968710672
 20
207.282389580974
  0
LWPOLYLINE
  5
2D1
330
1F
100
AcDbEntity
  8
Sichtbare_Kanten_TC_020513_DIN_
  6
Continuous
 62
     7
100
AcDbPolyline
 90
        2
 70
     0
 43
0.5
 10
-183.671968710672
 20
207.282389580974
 10
-178.37196871067
 20
207.282389580974
  0
LWPOLYLINE
  5
2D2
330
1F
100
AcDbEntity
  8
Sichtbare_Kanten_TC_020513_DIN_
  6
Continuous
 62
     7
100
AcDbPolyline
 90
        2
 70
     0
 43
0.5
 10
-177.67196871067
 20
206.582389580974
 10
-183.671968710672
 20
206.582389580974
  0
LWPOLYLINE
  5
2D3
330
1F
100
AcDbEntity
  8
Sichtbare_Kanten_TC_020513_DIN_
  6
Continuous
 62
     7
100
AcDbPolyline
 90
        2
 70
     0
 43
0.5
 10
-178.37196871067
 20
207.282389580974
 10
-177.67196871067
 20
206.582389580974
  0
LWPOLYLINE
  5
2D4
330
1F
100
AcDbEntity
  8
Sichtbare_Kanten_TC_020513_DIN_
  6
Continuous
 62
     7
100
AcDbPolyline
 90
        2
 70
     0
 43
0.5
 10
-178.37196871067
 20
208.282389580974
 10
-183.671968710672
 20
208.282389580974
  0
LWPOLYLINE
  5
2D5
330
1F
100
AcDbEntity
  8
Sichtbare_Kanten_TC_020513_DIN_
  6
Continuous
 62
     7
100
AcDbPolyline
 90
        2
 70
     0
 43
0.5
 10
-183.671968710672
 20
208.982389580974
 10
-177.67196871067
 20
208.982389580974
  0
LWPOLYLINE
  5
2D6
330
1F
100
AcDbEntity
  8
Sichtbare_Kanten_TC_020513_DIN_
  6
Continuous
 62
     7
100
AcDbPolyline
 90
        2
 70
     0
 43
0.5
 10
-178.37196871067
 20
208.282389580974
 10
-177.67196871067
 20
208.982389580974
  0
LWPOLYLINE
  5
2D7
330
1F
100
AcDbEntity
  8
Sichtbare_Kanten_TC_020513_DIN_
  6
Continuous
 62
     7
100
AcDbPolyline
 90
        2
 70
     0
 43
0.5
 10
-215.671968710672
 20
208.282389580974
 10
-183.671968710672
 20
208.282389580974
  0
LWPOLYLINE
  5
2D8
330
1F
100
AcDbEntity
  8
Sichtbare_Kanten_TC_020513_DIN_
  6
Continuous
 62
     7
100
AcDbPolyline
 90
        2
 70
     0
 43
0.5
 10
-250.671968710672
 20
194.582389580974
 10
-256.67196871067
 20
194.582389580974
  0
LWPOLYLINE
  5
2D9
330
1F
100
AcDbEntity
  8
Sichtbare_Kanten_TC_020513_DIN_
  6
Continuous
 62
     7
100
AcDbPolyline
 90
        2
 70
     0
 43
0.5
 10
-255.97196871067
 20
195.282389580974
 10
-256.67196871067
 20
194.582389580974
  0
LWPOLYLINE
  5
2DA
330
1F
100
AcDbEntity
  8
Sichtbare_Kanten_TC_020513_DIN_
  6
Continuous
 62
     7
100
AcDbPolyline
 90
        2
 70
     0
 43
0.5
 10
-256.67196871067
 20
196.982389580974
 10
-255.97196871067
 20
196.282389580974
  0
LWPOLYLINE
  5
2DB
330
1F
100
AcDbEntity
  8
Sichtbare_Kanten_TC_020513_DIN_
  6
Continuous
 62
     7
100
AcDbPolyline
 90
        2
 70
     0
 43
0.5
 10
-256.67196871067
 20
196.982389580974
 10
-250.671968710672
 20
196.982389580974
  0
LWPOLYLINE
  5
2DC
330
1F
100
AcDbEntity
  8
Sichtbare_Kanten_TC_020513_DIN_
  6
Continuous
 62
     7
100
AcDbPolyline
 90
        2
 70
     0
 43
0.5
 10
-250.671968710672
 20
197.582389580974
 10
-256.67196871067
 20
197.582389580974
  0
LWPOLYLINE
  5
2DD
330
1F
100
AcDbEntity
  8
Sichtbare_Kanten_TC_020513_DIN_
  6
Continuous
 62
     7
100
AcDbPolyline
 90
        2
 70
     0
 43
0.5
 10
-255.97196871067
 20
198.282389580974
 10
-256.67196871067
 20
197.582389580974
  0
LWPOLYLINE
  5
2DE
330
1F
100
AcDbEntity
  8
Sichtbare_Kanten_TC_020513_DIN_
  6
Continuous
 62
     7
100
AcDbPolyline
 90
        2
 70
     0
 43
0.5
 10
-256.67196871067
 20
199.982389580974
 10
-250.671968710672
 20
199.982389580974
  0
LWPOLYLINE
  5
2DF
330
1F
100
AcDbEntity
  8
Sichtbare_Kanten_TC_020513_DIN_
  6
Continuous
 62
     7
100
AcDbPolyline
 90
        2
 70
     0
 43
0.5
 10
-256.67196871067
 20
199.982389580974
 10
-255.97196871067
 20
199.282389580974
  0
LWPOLYLINE
  5
2E0
330
1F
100
AcDbEntity
  8
Sichtbare_Kanten_TC_020513_DIN_
  6
Continuous
 62
     7
100
AcDbPolyline
 90
        2
 70
     0
 43
0.5
 10
-255.97196871067
 20
201.282389580974
 10
-250.671968710672
 20
201.282389580974
  0
LWPOLYLINE
  5
2E1
330
1F
100
AcDbEntity
  8
Sichtbare_Kanten_TC_020513_DIN_
  6
Continuous
 62
     7
100
AcDbPolyline
 90
        2
 70
     0
 43
0.5
 10
-250.671968710672
 20
200.582389580974
 10
-256.67196871067
 20
200.582389580974
  0
LWPOLYLINE
  5
2E2
330
1F
100
AcDbEntity
  8
Sichtbare_Kanten_TC_020513_DIN_
  6
Continuous
 62
     7
100
AcDbPolyline
 90
        2
 70
     0
 43
0.5
 10
-255.97196871067
 20
201.282389580974
 10
-256.67196871067
 20
200.582389580974
  0
LWPOLYLINE
  5
2E3
330
1F
100
AcDbEntity
  8
Sichtbare_Kanten_TC_020513_DIN_
  6
Continuous
 62
     7
100
AcDbPolyline
 90
        2
 70
     0
 43
0.5
 10
-218.671968710672
 20
201.282389580974
 10
-250.671968710672
 20
201.282389580974
  0
LWPOLYLINE
  5
2E4
330
1F
100
AcDbEntity
  8
Sichtbare_Kanten_TC_020513_DIN_
  6
Continuous
 62
     7
100
AcDbPolyline
 90
        2
 70
     0
 43
0.5
 10
-250.671968710672
 20
202.282389580974
 10
-218.671968710672
 20
202.282389580974
  0
LWPOLYLINE
  5
2E5
330
1F
100
AcDbEntity
  8
Sichtbare_Kanten_TC_020513_DIN_
  6
Continuous
 62
     7
100
AcDbPolyline
 90
        2
 70
     0
 43
0.5
 10
-250.671968710672
 20
202.282389580974
 10
-255.97196871067
 20
202.282389580974
  0
LWPOLYLINE
  5
2E6
330
1F
100
AcDbEntity
  8
Sichtbare_Kanten_TC_020513_DIN_
  6
Continuous
 62
     7
100
AcDbPolyline
 90
        2
 70
     0
 43
0.5
 10
-256.67196871067
 20
202.982389580974
 10
-250.671968710672
 20
202.982389580974
  0
LWPOLYLINE
  5
2E7
330
1F
100
AcDbEntity
  8
Sichtbare_Kanten_TC_020513_DIN_
  6
Continuous
 62
     7
100
AcDbPolyline
 90
        2
 70
     0
 43
0.5
 10
-255.97196871067
 20
202.282389580974
 10
-256.67196871067
 20
202.982389580974
  0
LWPOLYLINE
  5
2E8
330
1F
100
AcDbEntity
  8
Sichtbare_Kanten_TC_020513_DIN_
  6
Continuous
 62
     7
100
AcDbPolyline
 90
        2
 70
     0
 43
0.5
 10
-255.97196871067
 20
204.282389580974
 10
-250.671968710672
 20
204.282389580974
  0
LWPOLYLINE
  5
2E9
330
1F
100
AcDbEntity
  8
Sichtbare_Kanten_TC_020513_DIN_
  6
Continuous
 62
     7
100
AcDbPolyline
 90
        2
 70
     0
 43
0.5
 10
-250.671968710672
 20
203.582389580974
 10
-256.67196871067
 20
203.582389580974
  0
LWPOLYLINE
  5
2EA
330
1F
100
AcDbEntity
  8
Sichtbare_Kanten_TC_020513_DIN_
  6
Continuous
 62
     7
100
AcDbPolyline
 90
        2
 70
     0
 43
0.5
 10
-255.97196871067
 20
204.282389580974
 10
-256.67196871067
 20
203.582389580974
  0
LWPOLYLINE
  5
2EB
330
1F
100
AcDbEntity
  8
Sichtbare_Kanten_TC_020513_DIN_
  6
Continuous
 62
     7
100
AcDbPolyline
 90
        2
 70
     0
 43
0.5
 10
-218.671968710672
 20
204.282389580974
 10
-250.671968710672
 20
204.282389580974
  0
LWPOLYLINE
  5
2EC
330
1F
100
AcDbEntity
  8
Sichtbare_Kanten_TC_020513_DIN_
  6
Continuous
 62
     7
100
AcDbPolyline
 90
        2
 70
     0
 43
0.5
 10
-250.671968710672
 20
205.282389580974
 10
-218.671968710672
 20
205.282389580974
  0
LWPOLYLINE
  5
2ED
330
1F
100
AcDbEntity
  8
Sichtbare_Kanten_TC_020513_DIN_
  6
Continuous
 62
     7
100
AcDbPolyline
 90
        2
 70
     0
 43
0.5
 10
-250.671968710672
 20
205.282389580974
 10
-255.97196871067
 20
205.282389580974
  0
LWPOLYLINE
  5
2EE
330
1F
100
AcDbEntity
  8
Sichtbare_Kanten_TC_020513_DIN_
  6
Continuous
 62
     7
100
AcDbPolyline
 90
        2
 70
     0
 43
0.5
 10
-256.67196871067
 20
205.982389580973
 10
-250.671968710672
 20
205.982389580973
  0
LWPOLYLINE
  5
2EF
330
1F
100
AcDbEntity
  8
Sichtbare_Kanten_TC_020513_DIN_
  6
Continuous
 62
     7
100
AcDbPolyline
 90
        2
 70
     0
 43
0.5
 10
-255.97196871067
 20
205.282389580974
 10
-256.67196871067
 20
205.982389580973
  0
LWPOLYLINE
  5
2F0
330
1F
100
AcDbEntity
  8
Sichtbare_Kanten_TC_020513_DIN_
  6
Continuous
 62
     7
100
AcDbPolyline
 90
        2
 70
     0
 43
0.5
 10
-255.97196871067
 20
207.282389580974
 10
-250.671968710672
 20
207.282389580974
  0
LWPOLYLINE
  5
2F1
330
1F
100
AcDbEntity
  8
Sichtbare_Kanten_TC_020513_DIN_
  6
Continuous
 62
     7
100
AcDbPolyline
 90
        2
 70
     0
 43
0.5
 10
-250.671968710672
 20
206.582389580974
 10
-256.67196871067
 20
206.582389580974
  0
LWPOLYLINE
  5
2F2
330
1F
100
AcDbEntity
  8
Sichtbare_Kanten_TC_020513_DIN_
  6
Continuous
 62
     7
100
AcDbPolyline
 90
        2
 70
     0
 43
0.5
 10
-255.97196871067
 20
207.282389580974
 10
-256.67196871067
 20
206.582389580974
  0
LWPOLYLINE
  5
2F3
330
1F
100
AcDbEntity
  8
Sichtbare_Kanten_TC_020513_DIN_
  6
Continuous
 62
     7
100
AcDbPolyline
 90
        2
 70
     0
 43
0.5
 10
-218.671968710672
 20
207.282389580974
 10
-250.671968710672
 20
207.282389580974
  0
LWPOLYLINE
  5
2F4
330
1F
100
AcDbEntity
  8
Sichtbare_Kanten_TC_020513_DIN_
  6
Continuous
 62
     7
100
AcDbPolyline
 90
        2
 70
     0
 43
0.5
 10
-250.671968710672
 20
208.282389580974
 10
-218.671968710672
 20
208.282389580974
  0
LWPOLYLINE
  5
2F5
330
1F
100
AcDbEntity
  8
Sichtbare_Kanten_TC_020513_DIN_
  6
Continuous
 62
     7
100
AcDbPolyline
 90
        2
 70
     0
 43
0.5
 10
-250.671968710672
 20
208.282389580974
 10
-255.97196871067
 20
208.282389580974
  0
LWPOLYLINE
  5
2F6
330
1F
100
AcDbEntity
  8
Sichtbare_Kanten_TC_020513_DIN_
  6
Continuous
 62
     7
100
AcDbPolyline
 90
        2
 70
     0
 43
0.5
 10
-256.67196871067
 20
208.982389580974
 10
-250.671968710672
 20
208.982389580974
  0
LWPOLYLINE
  5
2F7
330
1F
100
AcDbEntity
  8
Sichtbare_Kanten_TC_020513_DIN_
  6
Continuous
 62
     7
100
AcDbPolyline
 90
        2
 70
     0
 43
0.5
 10
-255.97196871067
 20
208.282389580974
 10
-256.67196871067
 20
208.982389580974
  0
LWPOLYLINE
  5
2F8
330
1F
100
AcDbEntity
  8
Sichtbare_Kanten_TC_020513_DIN_
  6
Continuous
 62
     7
100
AcDbPolyline
 90
        2
 70
     0
 43
0.5
 10
-214.299687387403
 20
199.282389580974
 10
-183.671968710672
 20
199.282389580974
  0
LWPOLYLINE
  5
2F9
330
1F
100
AcDbEntity
  8
Sichtbare_Kanten_TC_020513_DIN_
  6
Continuous
 62
     7
100
AcDbPolyline
 90
        2
 70
     0
 43
0.5
 10
-178.37196871067
 20
199.282389580974
 10
-183.671968710672
 20
199.282389580974
  0
LWPOLYLINE
  5
2FA
330
1F
100
AcDbEntity
  8
Sichtbare_Kanten_TC_020513_DIN_
  6
Continuous
 62
     7
100
AcDbPolyline
 90
        2
 70
     0
 43
0.5
 10
-183.671968710672
 20
198.282389580974
 10
-178.37196871067
 20
198.282389580974
  0
LWPOLYLINE
  5
2FB
330
1F
100
AcDbEntity
  8
Sichtbare_Kanten_TC_020513_DIN_
  6
Continuous
 62
     7
100
AcDbPolyline
 90
        2
 70
     0
 43
0.5
 10
-183.671968710672
 20
198.282389580974
 10
-212.350143330175
 20
198.282389580974
  0
LWPOLYLINE
  5
2FC
330
1F
100
AcDbEntity
  8
Sichtbare_Kanten_TC_020513_DIN_
  6
Continuous
 62
     7
100
AcDbPolyline
 90
        2
 70
     0
 43
0.5
 10
-255.97196871067
 20
195.282389580974
 10
-250.671968710672
 20
195.282389580974
  0
LWPOLYLINE
  5
2FD
330
1F
100
AcDbEntity
  8
Sichtbare_Kanten_TC_020513_DIN_
  6
Continuous
 62
     7
100
AcDbPolyline
 90
        2
 70
     0
 43
0.5
 10
-224.671968710672
 20
195.282389580974
 10
-250.671968710672
 20
195.282389580974
  0
LWPOLYLINE
  5
2FE
330
1F
100
AcDbEntity
  8
Sichtbare_Kanten_TC_020513_DIN_
  6
Continuous
 62
     7
100
AcDbPolyline
 90
        2
 70
     0
 43
0.5
 10
-211.465831663597
 20
197.582389580974
 10
-183.671968710672
 20
197.582389580974
  0
LWPOLYLINE
  5
2FF
330
1F
100
AcDbEntity
  8
Sichtbare_Kanten_TC_020513_DIN_
  6
Continuous
 62
     7
100
AcDbPolyline
 90
        2
 70
     0
 43
0.5
 10
-250.671968710672
 20
194.582389580974
 10
-225.005231121698
 20
194.582389580974
  0
LWPOLYLINE
  5
300
330
1F
100
AcDbEntity
  8
Sichtbare_Kanten_TC_020513_DIN_
  6
Continuous
 62
     7
100
AcDbPolyline
 90
        2
 70
     0
 43
0.5
 10
-250.671968710672
 20
199.282389580974
 10
-255.97196871067
 20
199.282389580974
  0
LWPOLYLINE
  5
301
330
1F
100
AcDbEntity
  8
Sichtbare_Kanten_TC_020513_DIN_
  6
Continuous
 62
     7
100
AcDbPolyline
 90
        2
 70
     0
 43
0.5
 10
-250.671968710672
 20
199.282389580974
 10
-220.044250033941
 20
199.282389580974
  0
LWPOLYLINE
  5
302
330
1F
100
AcDbEntity
  8
Sichtbare_Kanten_TC_020513_DIN_
  6
Continuous
 62
     7
100
AcDbPolyline
 90
        2
 70
     0
 43
0.5
 10
-218.671968710672
 20
199.982389580974
 10
-250.671968710672
 20
199.982389580974
  0
LWPOLYLINE
  5
303
330
1F
100
AcDbEntity
  8
Sichtbare_Kanten_TC_020513_DIN_
  6
Continuous
 62
     7
100
AcDbPolyline
 90
        2
 70
     0
 43
0.5
 10
-250.671968710672
 20
200.582389580974
 10
-218.671968710672
 20
200.582389580974
  0
LWPOLYLINE
  5
304
330
1F
100
AcDbEntity
  8
Sichtbare_Kanten_TC_020513_DIN_
  6
Continuous
 62
     7
100
AcDbPolyline
 90
        2
 70
     0
 43
0.5
 10
-218.671968710672
 20
202.982389580974
 10
-250.671968710672
 20
202.982389580974
  0
LWPOLYLINE
  5
305
330
1F
100
AcDbEntity
  8
Sichtbare_Kanten_TC_020513_DIN_
  6
Continuous
 62
     7
100
AcDbPolyline
 90
        2
 70
     0
 43
0.5
 10
-250.671968710672
 20
203.582389580974
 10
-218.671968710672
 20
203.582389580974
  0
LWPOLYLINE
  5
306
330
1F
100
AcDbEntity
  8
Sichtbare_Kanten_TC_020513_DIN_
  6
Continuous
 62
     7
100
AcDbPolyline
 90
        2
 70
     0
 43
0.5
 10
-218.671968710672
 20
205.982389580973
 10
-250.671968710672
 20
205.982389580973
  0
LWPOLYLINE
  5
307
330
1F
100
AcDbEntity
  8
Sichtbare_Kanten_TC_020513_DIN_
  6
Continuous
 62
     7
100
AcDbPolyline
 90
        2
 70
     0
 43
0.5
 10
-250.671968710672
 20
206.582389580974
 10
-218.671968710672
 20
206.582389580974
  0
LWPOLYLINE
  5
308
330
1F
100
AcDbEntity
  8
Sichtbare_Kanten_TC_020513_DIN_
  6
Continuous
 62
     7
100
AcDbPolyline
 90
        2
 70
     0
 43
0.5
 10
-218.671968710672
 20
208.982389580974
 10
-250.671968710672
 20
208.982389580974
  0
LWPOLYLINE
  5
309
330
1F
100
AcDbEntity
  8
Sichtbare_Kanten_TC_020513_DIN_
  6
Continuous
 62
     7
100
AcDbPolyline
 90
        2
 70
     0
 43
0.5
 10
-183.671968710672
 20
208.982389580974
 10
-215.671968710672
 20
208.982389580974
  0
LWPOLYLINE
  5
30A
330
1F
100
AcDbEntity
  8
Sichtbare_Kanten_TC_020513_DIN_
  6
Continuous
 62
     7
100
AcDbPolyline
 90
        2
 70
     0
 43
0.5
 10
-215.671968710672
 20
206.582389580974
 10
-183.671968710672
 20
206.582389580974
  0
LWPOLYLINE
  5
30B
330
1F
100
AcDbEntity
  8
Sichtbare_Kanten_TC_020513_DIN_
  6
Continuous
 62
     7
100
AcDbPolyline
 90
        2
 70
     0
 43
0.5
 10
-183.671968710672
 20
205.982389580973
 10
-215.671968710672
 20
205.982389580973
  0
LWPOLYLINE
  5
30C
330
1F
100
AcDbEntity
  8
Sichtbare_Kanten_TC_020513_DIN_
  6
Continuous
 62
     7
100
AcDbPolyline
 90
        2
 70
     0
 43
0.5
 10
-215.671968710672
 20
203.582389580974
 10
-183.671968710672
 20
203.582389580974
  0
LWPOLYLINE
  5
30D
330
1F
100
AcDbEntity
  8
Sichtbare_Kanten_TC_020513_DIN_
  6
Continuous
 62
     7
100
AcDbPolyline
 90
        2
 70
     0
 43
0.5
 10
-183.671968710672
 20
202.982389580974
 10
-215.671968710672
 20
202.982389580974
  0
LWPOLYLINE
  5
30E
330
1F
100
AcDbEntity
  8
Sichtbare_Kanten_TC_020513_DIN_
  6
Continuous
 62
     7
100
AcDbPolyline
 90
        2
 70
     0
 43
0.5
 10
-215.671968710672
 20
200.582389580974
 10
-183.671968710672
 20
200.582389580974
  0
LWPOLYLINE
  5
30F
330
1F
100
AcDbEntity
  8
Sichtbare_Kanten_TC_020513_DIN_
  6
Continuous
 62
     7
100
AcDbPolyline
 90
        2
 70
     0
 43
0.5
 10
-183.671968710672
 20
199.982389580974
 10
-215.671968710672
 20
199.982389580974
  0
LWPOLYLINE
  5
310
330
1F
100
AcDbEntity
  8
Sichtbare_Kanten_TC_020513_DIN_
  6
Continuous
 62
     7
100
AcDbPolyline
 90
        2
 70
     0
 43
0.5
 10
-255.97196871067
 20
198.282389580974
 10
-250.671968710672
 20
198.282389580974
  0
LWPOLYLINE
  5
311
330
1F
100
AcDbEntity
  8
Sichtbare_Kanten_TC_020513_DIN_
  6
Continuous
 62
     7
100
AcDbPolyline
 90
        2
 70
     0
 43
0.5
 10
-250.671968710672
 20
197.582389580974
 10
-222.878105757747
 20
197.582389580974
  0
LWPOLYLINE
  5
312
330
1F
100
AcDbEntity
  8
Sichtbare_Kanten_TC_020513_DIN_
  6
Continuous
 62
     7
100
AcDbPolyline
 90
        2
 70
     0
 43
0.5
 10
-221.993794091168
 20
198.282389580974
 10
-250.671968710672
 20
198.282389580974
  0
LWPOLYLINE
  5
313
330
1F
100
AcDbEntity
  8
Sichtbare_Kanten_TC_020513_DIN_
  6
Continuous
 62
     7
100
AcDbPolyline
 90
        2
 70
     0
 43
0.5
 10
-223.477521818846
 20
196.982389580974
 10
-250.671968710672
 20
196.982389580974
  0
LWPOLYLINE
  5
314
330
1F
100
AcDbEntity
  8
Sichtbare_Kanten_TC_020513_DIN_
  6
Continuous
 62
     7
100
AcDbPolyline
 90
        2
 70
     0
 43
0.5
 10
-183.671968710672
 20
196.982389580974
 10
-210.866415602498
 20
196.982389580974
  0
LWPOLYLINE
  5
315
330
1F
100
AcDbEntity
  8
Sichtbare_Kanten_TC_020513_DIN_
  6
Continuous
 62
     7
100
AcDbPolyline
 90
        2
 70
     0
 43
0.5
 10
-209.338706299646
 20
194.582389580974
 10
-183.671968710672
 20
194.582389580974
  0
LWPOLYLINE
  5
316
330
1F
100
AcDbEntity
  8
Sichtbare_Kanten_TC_020513_DIN_
  6
Continuous
 62
     7
100
AcDbPolyline
 90
        2
 70
     0
 43
0.5
 10
-183.671968710672
 20
195.282389580974
 10
-178.37196871067
 20
195.282389580974
  0
LWPOLYLINE
  5
317
330
1F
100
AcDbEntity
  8
Sichtbare_Kanten_TC_020513_DIN_
  6
Continuous
 62
     7
100
AcDbPolyline
 90
        2
 70
     0
 43
0.5
 10
-183.671968710672
 20
195.282389580974
 10
-209.671968710672
 20
195.282389580974
  0
LWPOLYLINE
  5
318
330
1F
100
AcDbEntity
  8
Sichtbare_Kanten_TC_020513_DIN_
  6
Continuous
 62
     7
100
AcDbPolyline
 90
        2
 70
     0
 43
0.5
 10
-250.671968710672
 20
196.282389580974
 10
-255.97196871067
 20
196.282389580974
  0
LWPOLYLINE
  5
319
330
1F
100
AcDbEntity
  8
Sichtbare_Kanten_TC_020513_DIN_
  6
Continuous
 62
     7
100
AcDbPolyline
 90
        2
 70
     0
 43
0.5
 10
-250.671968710672
 20
196.282389580974
 10
-224.045832253105
 20
196.282389580974
  0
LWPOLYLINE
  5
31A
330
1F
100
AcDbEntity
  8
Sichtbare_Kanten_TC_020513_DIN_
  6
Continuous
 62
     7
100
AcDbPolyline
 90
        2
 70
     0
 43
0.5
 10
-210.298105168238
 20
196.282389580974
 10
-183.671968710672
 20
196.282389580974
  0
LWPOLYLINE
  5
31B
330
1F
100
AcDbEntity
  8
Sichtbare_Kanten_TC_020513_DIN_
  6
Continuous
 62
     7
100
AcDbPolyline
 90
        2
 70
     0
 43
0.5
 10
-178.37196871067
 20
196.282389580974
 10
-183.671968710672
 20
196.282389580974
  0
LWPOLYLINE
  5
31C
330
1F
100
AcDbEntity
  8
Sichtbare_Kanten_TC_020513_DIN_
  6
Continuous
 62
     7
100
AcDbPolyline
 90
        2
 70
     0
 43
0.5
 10
-250.671968710674
 20
186.782389580974
 10
-262.17196871067
 20
186.782389580974
  0
LWPOLYLINE
  5
31D
330
1F
100
AcDbEntity
  8
Sichtbare_Kanten_TC_020513_DIN_
  6
Continuous
 62
     7
100
AcDbPolyline
 90
        2
 70
     0
 43
0.5
 10
-177.67196871067
 20
191.782389580974
 10
-183.671968710672
 20
191.782389580974
  0
LWPOLYLINE
  5
31E
330
1F
100
AcDbEntity
  8
Sichtbare_Kanten_TC_020513_DIN_
  6
Continuous
 62
     7
100
AcDbPolyline
 90
        2
 70
     0
 43
0.5
 10
-172.17196871067
 20
186.782389580974
 10
-183.671968710674
 20
186.782389580974
  0
LWPOLYLINE
  5
31F
330
1F
100
AcDbEntity
  8
Sichtbare_Kanten_TC_020513_DIN_
  6
Continuous
 62
     7
100
AcDbPolyline
 90
        2
 70
     0
 43
0.5
 10
-172.17196871067
 20
186.782389580974
 10
-177.67196871067
 20
191.782389580974
  0
LWPOLYLINE
  5
320
330
1F
100
AcDbEntity
  8
Sichtbare_Kanten_TC_020513_DIN_
  6
Continuous
 62
     7
100
AcDbPolyline
 90
        2
 70
     0
 43
0.5
 10
-172.17196871067
 20
182.782389580974
 10
-172.17196871067
 20
186.782389580974
  0
LWPOLYLINE
  5
321
330
1F
100
AcDbEntity
  8
Sichtbare_Kanten_TC_020513_DIN_
  6
Continuous
 62
     7
100
AcDbPolyline
 90
        2
 70
     0
 43
0.5
 10
-256.67196871067
 20
191.782389580974
 10
-262.17196871067
 20
186.782389580974
  0
LWPOLYLINE
  5
322
330
1F
100
AcDbEntity
  8
Sichtbare_Kanten_TC_020513_DIN_
  6
Continuous
 62
     7
100
AcDbPolyline
 90
        2
 70
     0
 43
0.5
 10
-262.17196871067
 20
186.782389580974
 10
-262.17196871067
 20
182.782389580974
  0
LWPOLYLINE
  5
323
330
1F
100
AcDbEntity
  8
Sichtbare_Kanten_TC_020513_DIN_
  6
Continuous
 62
     7
100
AcDbPolyline
 90
        2
 70
     0
 43
0.5
 10
-250.671968710672
 20
191.782389580974
 10
-256.67196871067
 20
191.782389580974
  0
LWPOLYLINE
  5
324
330
1F
100
AcDbEntity
  8
Sichtbare_Kanten_TC_020513_DIN_
  6
Continuous
 62
     7
100
AcDbPolyline
 90
        2
 70
     0
 43
0.5
 10
-208.671968710674
 20
186.782389580974
 10
-183.671968710674
 20
186.782389580974
  0
LWPOLYLINE
  5
325
330
1F
100
AcDbEntity
  8
Sichtbare_Kanten_TC_020513_DIN_
  6
Continuous
 62
     7
100
AcDbPolyline
 90
        2
 70
     0
 43
0.5
 10
-250.671968710674
 20
186.782389580974
 10
-225.671968710674
 20
186.782389580974
  0
LWPOLYLINE
  5
326
330
1F
100
AcDbEntity
  8
Sichtbare_Kanten_TC_020513_DIN_
  6
Continuous
 62
     7
100
AcDbPolyline
 90
        2
 70
     0
 43
0.5
 10
-250.671968710672
 20
191.782389580974
 10
-225.657250084911
 20
191.782389580974
  0
LWPOLYLINE
  5
327
330
1F
100
AcDbEntity
  8
Sichtbare_Kanten_TC_020513_DIN_
  6
Continuous
 62
     7
100
AcDbPolyline
 90
        2
 70
     0
 43
0.5
 10
-208.686687336433
 20
191.782389580974
 10
-183.671968710672
 20
191.782389580974
  0
LWPOLYLINE
  5
328
330
1F
100
AcDbEntity
  8
Sichtbare_Kanten_TC_020513_DIN_
  6
Continuous
 62
     7
100
AcDbPolyline
 90
        2
 70
     0
 43
0.5
 10
-172.17196871067
 20
182.782389580974
 10
-183.671968710674
 20
182.782389580974
  0
LWPOLYLINE
  5
329
330
1F
100
AcDbEntity
  8
Sichtbare_Kanten_TC_020513_DIN_
  6
Continuous
 62
     7
100
AcDbPolyline
 90
        2
 70
     0
 43
0.5
 10
-250.671968710674
 20
182.782389580974
 10
-262.17196871067
 20
182.782389580974
  0
LWPOLYLINE
  5
32A
330
1F
100
AcDbEntity
  8
Sichtbare_Kanten_TC_020513_DIN_
  6
Continuous
 62
     7
100
AcDbPolyline
 90
        2
 70
     0
 43
0.5
 10
-250.671968710674
 20
182.782389580974
 10
-183.671968710674
 20
182.782389580974
  0
LWPOLYLINE
  5
32B
330
1F
100
AcDbEntity
  8
Sichtbare_Kanten_TC_020513_DIN_
  6
Continuous
 62
     7
100
AcDbPolyline
 90
        2
 70
     0
 43
0.5
 10
-211.171968710672
 20
182.782389580974
 10
-211.171968710672
 20
173.782389580974
  0
LWPOLYLINE
  5
32C
330
1F
100
AcDbEntity
  8
Sichtbare_Kanten_TC_020513_DIN_
  6
Continuous
 62
     7
100
AcDbPolyline
 90
        2
 70
     0
 43
0.5
 10
-223.171968710672
 20
173.782389580974
 10
-223.171968710672
 20
182.782389580974
  0
LWPOLYLINE
  5
32D
330
1F
100
AcDbEntity
  8
Sichtbare_Kanten_TC_020513_DIN_
  6
Continuous
 62
     7
100
AcDbPolyline
 90
        2
 70
     0
 43
0.5
 10
-208.671968710674
 20
186.782389580974
 10
-208.671968710674
 20
191.282389580974
  0
LWPOLYLINE
  5
32E
330
1F
100
AcDbEntity
  8
Sichtbare_Kanten_TC_020513_DIN_
  6
Continuous
 62
     7
100
AcDbPolyline
 90
        2
 70
     0
 43
0.5
 10
-225.671968710674
 20
191.282389580974
 10
-225.671968710674
 20
186.782389580974
  0
LWPOLYLINE
  5
32F
330
1F
100
AcDbEntity
  8
Sichtbare_Kanten_TC_020513_DIN_
  6
Continuous
 62
     7
100
AcDbPolyline
 90
        2
 70
     0
 43
0.5
 10
-219.386127693225
 20
191.682389580974
 10
-214.957809728128
 20
191.682389580974
  0
LWPOLYLINE
  5
330
330
1F
100
AcDbEntity
  8
Sichtbare_Kanten_TC_020513_DIN_
  6
Continuous
 62
     7
100
AcDbPolyline
 90
        2
 70
     0
 43
0.5
 10
-214.957809728128
 20
190.882389580974
 10
-219.386127693225
 20
190.882389580974
  0
LWPOLYLINE
  5
331
330
1F
100
AcDbEntity
  8
Sichtbare_Kanten_TC_020513_DIN_
  6
Continuous
 62
     7
100
AcDbPolyline
 90
        2
 70
     0
 43
0.5
 10
-242.171968710654
 20
300.282389580974
 10
-242.171968710654
 20
280.782389580974
  0
LWPOLYLINE
  5
332
330
1F
100
AcDbEntity
  8
Sichtbare_Kanten_TC_020513_DIN_
  6
Continuous
 62
     7
100
AcDbPolyline
 90
        2
 70
     0
 43
0.5
 10
-192.171968710654
 20
300.282389580974
 10
-192.171968710654
 20
280.782389580974
  0
LWPOLYLINE
  5
333
330
1F
100
AcDbEntity
  8
Sichtbare_Kanten_TC_020513_DIN_
  6
Continuous
 62
     7
100
AcDbPolyline
 90
        2
 70
     0
 43
0.5
 10
-242.171968710654
 20
300.282389580974
 10
-192.171968710654
 20
300.282389580974
  0
LWPOLYLINE
  5
334
330
1F
100
AcDbEntity
  8
Sichtbare_Kanten_TC_020513_DIN_
  6
Continuous
 62
     7
100
AcDbPolyline
 90
        2
 70
     0
 43
0.5
 10
-256.67196871067
 20
182.782389580974
 10
-256.67196871067
 20
173.782389580974
  0
LWPOLYLINE
  5
335
330
1F
100
AcDbEntity
  8
Sichtbare_Kanten_TC_020513_DIN_
  6
Continuous
 62
     7
100
AcDbPolyline
 90
        2
 70
     0
 43
0.5
 10
-177.67196871067
 20
173.782389580974
 10
-177.67196871067
 20
182.782389580974
  0
LWPOLYLINE
  5
336
330
1F
100
AcDbEntity
  8
Sichtbare_Kanten_TC_020513_DIN_
  6
Continuous
 62
     7
100
AcDbPolyline
 90
        2
 70
     0
 43
0.5
 10
-177.67196871067
 20
191.782389580974
 10
-177.67196871067
 20
194.582389580974
  0
LWPOLYLINE
  5
337
330
1F
100
AcDbEntity
  8
Sichtbare_Kanten_TC_020513_DIN_
  6
Continuous
 62
     7
100
AcDbPolyline
 90
        2
 70
     0
 43
0.5
 10
-177.67196871067
 20
196.982389580974
 10
-177.67196871067
 20
197.582389580974
  0
LWPOLYLINE
  5
338
330
1F
100
AcDbEntity
  8
Sichtbare_Kanten_TC_020513_DIN_
  6
Continuous
 62
     7
100
AcDbPolyline
 90
        2
 70
     0
 43
0.5
 10
-177.67196871067
 20
199.982389580974
 10
-177.67196871067
 20
200.582389580974
  0
LWPOLYLINE
  5
339
330
1F
100
AcDbEntity
  8
Sichtbare_Kanten_TC_020513_DIN_
  6
Continuous
 62
     7
100
AcDbPolyline
 90
        2
 70
     0
 43
0.5
 10
-177.67196871067
 20
202.982389580974
 10
-177.67196871067
 20
203.582389580974
  0
LWPOLYLINE
  5
33A
330
1F
100
AcDbEntity
  8
Sichtbare_Kanten_TC_020513_DIN_
  6
Continuous
 62
     7
100
AcDbPolyline
 90
        2
 70
     0
 43
0.5
 10
-177.67196871067
 20
205.982389580973
 10
-177.67196871067
 20
206.582389580974
  0
LWPOLYLINE
  5
33B
330
1F
100
AcDbEntity
  8
Sichtbare_Kanten_TC_020513_DIN_
  6
Continuous
 62
     7
100
AcDbPolyline
 90
        2
 70
     0
 43
0.5
 10
-256.67196871067
 20
194.582389580974
 10
-256.67196871067
 20
191.782389580974
  0
LWPOLYLINE
  5
33C
330
1F
100
AcDbEntity
  8
Sichtbare_Kanten_TC_020513_DIN_
  6
Continuous
 62
     7
100
AcDbPolyline
 90
        2
 70
     0
 43
0.5
 10
-256.67196871067
 20
206.582389580974
 10
-256.67196871067
 20
205.982389580973
  0
LWPOLYLINE
  5
33D
330
1F
100
AcDbEntity
  8
Sichtbare_Kanten_TC_020513_DIN_
  6
Continuous
 62
     7
100
AcDbPolyline
 90
        2
 70
     0
 43
0.5
 10
-256.67196871067
 20
203.582389580974
 10
-256.67196871067
 20
202.982389580974
  0
LWPOLYLINE
  5
33E
330
1F
100
AcDbEntity
  8
Sichtbare_Kanten_TC_020513_DIN_
  6
Continuous
 62
     7
100
AcDbPolyline
 90
        2
 70
     0
 43
0.5
 10
-256.67196871067
 20
197.582389580974
 10
-256.67196871067
 20
196.982389580974
  0
LWPOLYLINE
  5
33F
330
1F
100
AcDbEntity
  8
Sichtbare_Kanten_TC_020513_DIN_
  6
Continuous
 62
     7
100
AcDbPolyline
 90
        2
 70
     0
 43
0.5
 10
-256.67196871067
 20
200.582389580974
 10
-256.67196871067
 20
199.982389580974
  0
LWPOLYLINE
  5
340
330
1F
100
AcDbEntity
  8
Sichtbare_Kanten_TC_020513_DIN_
  6
Continuous
 62
     7
100
AcDbPolyline
 90
        2
 70
     0
 43
0.5
 10
-177.671968710667
 20
265.514440388542
 10
-177.671968710667
 20
277.782389580974
  0
LWPOLYLINE
  5
341
330
1F
100
AcDbEntity
  8
Sichtbare_Kanten_TC_020513_DIN_
  6
Continuous
 62
     7
100
AcDbPolyline
 90
        2
 70
     0
 43
0.5
 10
-177.67196871067
 20
208.982389580974
 10
-177.67196871067
 20
220.050338773405
  0
LWPOLYLINE
  5
342
330
1F
100
AcDbEntity
  8
Sichtbare_Kanten_TC_020513_DIN_
  6
Continuous
 62
     7
100
AcDbPolyline
 90
        2
 70
     0
 43
0.5
 10
-178.671968710671
 20
221.782389580974
 10
-177.67196871067
 20
220.050338773405
  0
LWPOLYLINE
  5
343
330
1F
100
AcDbEntity
  8
Sichtbare_Kanten_TC_020513_DIN_
  6
Continuous
 62
     7
100
AcDbPolyline
 90
        2
 70
     0
 43
0.5
 10
-177.671968710667
 20
265.514440388542
 10
-178.671968710668
 20
263.782389580974
  0
LWPOLYLINE
  5
344
330
1F
100
AcDbEntity
  8
Sichtbare_Kanten_TC_020513_DIN_
  6
Continuous
 62
     7
100
AcDbPolyline
 90
        2
 70
     0
 43
0.5
 10
-256.67196871067
 20
220.050338773405
 10
-256.67196871067
 20
208.982389580974
  0
LWPOLYLINE
  5
345
330
1F
100
AcDbEntity
  8
Sichtbare_Kanten_TC_020513_DIN_
  6
Continuous
 62
     7
100
AcDbPolyline
 90
        2
 70
     0
 43
0.5
 10
-256.671968710667
 20
277.782389580974
 10
-256.671968710667
 20
265.514440388542
  0
LWPOLYLINE
  5
346
330
1F
100
AcDbEntity
  8
Sichtbare_Kanten_TC_020513_DIN_
  6
Continuous
 62
     7
100
AcDbPolyline
 90
        2
 70
     0
 43
0.5
 10
-255.671968710668
 20
263.782389580974
 10
-256.671968710667
 20
265.514440388542
  0
LWPOLYLINE
  5
347
330
1F
100
AcDbEntity
  8
Sichtbare_Kanten_TC_020513_DIN_
  6
Continuous
 62
     7
100
AcDbPolyline
 90
        2
 70
     0
 43
0.5
 10
-255.671968710668
 20
263.782389580974
 10
-255.67196871067
 20
221.782389580974
  0
LWPOLYLINE
  5
348
330
1F
100
AcDbEntity
  8
Sichtbare_Kanten_TC_020513_DIN_
  6
Continuous
 62
     7
100
AcDbPolyline
 90
        2
 70
     0
 43
0.5
 10
-256.67196871067
 20
220.050338773405
 10
-255.67196871067
 20
221.782389580974
  0
LWPOLYLINE
  5
349
330
1F
100
AcDbEntity
  8
Sichtbare_Kanten_TC_020513_DIN_
  6
Continuous
 62
     7
100
AcDbPolyline
 90
        2
 70
     0
 43
0.5
 10
-250.671968710672
 20
173.782389580974
 10
-256.67196871067
 20
173.782389580974
  0
LWPOLYLINE
  5
34A
330
1F
100
AcDbEntity
  8
Sichtbare_Kanten_TC_020513_DIN_
  6
Continuous
 62
     7
100
AcDbPolyline
 90
        2
 70
     0
 43
0.5
 10
-177.67196871067
 20
173.782389580974
 10
-183.671968710672
 20
173.782389580974
  0
LWPOLYLINE
  5
34B
330
1F
100
AcDbEntity
  8
Sichtbare_Kanten_TC_020513_DIN_
  6
Continuous
 62
     7
100
AcDbPolyline
 90
        2
 70
     0
 43
0.5
 10
-178.671968710671
 20
221.782389580974
 10
-178.671968710668
 20
263.782389580974
  0
LWPOLYLINE
  5
34C
330
1F
100
AcDbEntity
  8
Sichtbare_Kanten_TC_020513_DIN_
  6
Continuous
 62
     7
100
AcDbPolyline
 90
        2
 70
     0
 43
0.5
 10
-439.92139324237
 20
280.782389580974
 10
-436.871520155167
 20
280.782389580974
  0
LWPOLYLINE
  5
34D
330
1F
100
AcDbEntity
  8
Sichtbare_Kanten_TC_020513_DIN_
  6
Continuous
 62
     7
100
AcDbPolyline
 90
        2
 70
     0
 43
0.5
 10
-352.972420954684
 20
280.782389580974
 10
-436.871520155167
 20
280.782389580974
  0
LWPOLYLINE
  5
34E
330
1F
100
AcDbEntity
  8
Sichtbare_Kanten_TC_020513_DIN_
  6
Continuous
 62
     7
100
AcDbPolyline
 90
        2
 70
     0
 43
0.5
 10
-352.972420954684
 20
280.782389580974
 10
-349.922547867481
 20
280.782389580974
  0
LWPOLYLINE
  5
34F
330
1F
100
AcDbEntity
  8
Sichtbare_Kanten_TC_020513_DIN_
  6
Continuous
 62
     7
100
AcDbPolyline
 90
        2
 70
     0
 43
0.5
 10
-454.421970554926
 20
198.282389580974
 10
-454.421970554926
 20
199.282389580974
  0
LWPOLYLINE
  5
350
330
1F
100
AcDbEntity
  8
Sichtbare_Kanten_TC_020513_DIN_
  6
Continuous
 62
     7
100
AcDbPolyline
 90
        2
 70
     0
 43
0.5
 10
-335.421970554926
 20
198.282389580974
 10
-335.421970554926
 20
199.282389580974
  0
LWPOLYLINE
  5
351
330
1F
100
AcDbEntity
  8
Sichtbare_Kanten_TC_020513_DIN_
  6
Continuous
 62
     7
100
AcDbPolyline
 90
        2
 70
     0
 43
0.5
 10
-454.421970554926
 20
201.282389580974
 10
-454.421970554926
 20
202.282389580974
  0
LWPOLYLINE
  5
352
330
1F
100
AcDbEntity
  8
Sichtbare_Kanten_TC_020513_DIN_
  6
Continuous
 62
     7
100
AcDbPolyline
 90
        2
 70
     0
 43
0.5
 10
-335.421970554926
 20
201.282389580974
 10
-335.421970554926
 20
202.282389580974
  0
LWPOLYLINE
  5
353
330
1F
100
AcDbEntity
  8
Sichtbare_Kanten_TC_020513_DIN_
  6
Continuous
 62
     7
100
AcDbPolyline
 90
        2
 70
     0
 43
0.5
 10
-454.421970554926
 20
204.282389580974
 10
-454.421970554926
 20
205.282389580974
  0
LWPOLYLINE
  5
354
330
1F
100
AcDbEntity
  8
Sichtbare_Kanten_TC_020513_DIN_
  6
Continuous
 62
     7
100
AcDbPolyline
 90
        2
 70
     0
 43
0.5
 10
-335.421970554926
 20
204.282389580974
 10
-335.421970554926
 20
205.282389580974
  0
LWPOLYLINE
  5
355
330
1F
100
AcDbEntity
  8
Sichtbare_Kanten_TC_020513_DIN_
  6
Continuous
 62
     7
100
AcDbPolyline
 90
        2
 70
     0
 43
0.5
 10
-454.421970554926
 20
207.282389580974
 10
-454.421970554926
 20
208.282389580974
  0
LWPOLYLINE
  5
356
330
1F
100
AcDbEntity
  8
Sichtbare_Kanten_TC_020513_DIN_
  6
Continuous
 62
     7
100
AcDbPolyline
 90
        2
 70
     0
 43
0.5
 10
-335.421970554926
 20
207.282389580974
 10
-335.421970554926
 20
208.282389580974
  0
LWPOLYLINE
  5
357
330
1F
100
AcDbEntity
  8
Sichtbare_Kanten_TC_020513_DIN_
  6
Continuous
 62
     7
100
AcDbPolyline
 90
        2
 70
     0
 43
0.5
 10
-454.421970554926
 20
195.282389580974
 10
-454.421970554926
 20
196.282389580974
  0
LWPOLYLINE
  5
358
330
1F
100
AcDbEntity
  8
Sichtbare_Kanten_TC_020513_DIN_
  6
Continuous
 62
     7
100
AcDbPolyline
 90
        2
 70
     0
 43
0.5
 10
-335.421970554926
 20
195.282389580974
 10
-335.421970554926
 20
196.282389580974
  0
LWPOLYLINE
  5
359
330
1F
100
AcDbEntity
  8
Sichtbare_Kanten_TC_020513_DIN_
  6
Continuous
 62
     7
100
AcDbPolyline
 90
        2
 70
     0
 43
0.5
 10
-334.421970554926
 20
199.648989846314
 10
-334.421970554926
 20
199.982389580974
  0
LWPOLYLINE
  5
35A
330
1F
100
AcDbEntity
  8
Sichtbare_Kanten_TC_020513_DIN_
  6
Continuous
 62
     7
100
AcDbPolyline
 90
        2
 70
     0
 43
0.5
 10
-334.421970554926
 20
200.582389580974
 10
-334.421970554926
 20
202.982389580974
  0
LWPOLYLINE
  5
35B
330
1F
100
AcDbEntity
  8
Sichtbare_Kanten_TC_020513_DIN_
  6
Continuous
 62
     7
100
AcDbPolyline
 90
        2
 70
     0
 43
0.5
 10
-334.421970554926
 20
203.582389580974
 10
-334.421970554926
 20
205.982389580973
  0
LWPOLYLINE
  5
35C
330
1F
100
AcDbEntity
  8
Sichtbare_Kanten_TC_020513_DIN_
  6
Continuous
 62
     7
100
AcDbPolyline
 90
        2
 70
     0
 43
0.5
 10
-334.421970554926
 20
206.582389580974
 10
-334.421970554926
 20
208.982389580974
  0
LWPOLYLINE
  5
35D
330
1F
100
AcDbEntity
  8
Sichtbare_Kanten_TC_020513_DIN_
  6
Continuous
 62
     7
100
AcDbPolyline
 90
        2
 70
     0
 43
0.5
 10
-340.421970554926
 20
173.782389580974
 10
-449.421970554926
 20
173.782389580974
  0
LWPOLYLINE
  5
35E
330
1F
100
AcDbEntity
  8
Sichtbare_Kanten_TC_020513_DIN_
  6
Continuous
 62
     7
100
AcDbPolyline
 90
        2
 70
     0
 43
0.5
 10
-455.421970554926
 20
208.982389580974
 10
-455.421970554926
 20
206.582389580974
  0
LWPOLYLINE
  5
35F
330
1F
100
AcDbEntity
  8
Sichtbare_Kanten_TC_020513_DIN_
  6
Continuous
 62
     7
100
AcDbPolyline
 90
        2
 70
     0
 43
0.5
 10
-455.421970554926
 20
205.982389580973
 10
-455.421970554926
 20
203.582389580974
  0
LWPOLYLINE
  5
360
330
1F
100
AcDbEntity
  8
Sichtbare_Kanten_TC_020513_DIN_
  6
Continuous
 62
     7
100
AcDbPolyline
 90
        2
 70
     0
 43
0.5
 10
-455.421970554926
 20
202.982389580974
 10
-455.421970554926
 20
200.582389580974
  0
LWPOLYLINE
  5
361
330
1F
100
AcDbEntity
  8
Sichtbare_Kanten_TC_020513_DIN_
  6
Continuous
 62
     7
100
AcDbPolyline
 90
        2
 70
     0
 43
0.5
 10
-455.421970554926
 20
199.982389580974
 10
-455.421970554926
 20
199.648989846314
  0
LWPOLYLINE
  5
362
330
1F
100
AcDbEntity
  8
Sichtbare_Kanten_TC_020513_DIN_
  6
Continuous
 62
     7
100
AcDbPolyline
 90
        2
 70
     0
 43
0.5
 10
-449.421970554926
 20
194.582389580974
 10
-455.421970554926
 20
194.582389580974
  0
LWPOLYLINE
  5
363
330
1F
100
AcDbEntity
  8
Sichtbare_Kanten_TC_020513_DIN_
  6
Continuous
 62
     7
100
AcDbPolyline
 90
        2
 70
     0
 43
0.5
 10
-334.421970554926
 20
194.582389580974
 10
-340.421970554926
 20
194.582389580974
  0
LWPOLYLINE
  5
364
330
1F
100
AcDbEntity
  8
Sichtbare_Kanten_TC_020513_DIN_
  6
Continuous
 62
     7
100
AcDbPolyline
 90
        2
 70
     0
 43
0.5
 10
-449.421970554926
 20
194.582389580974
 10
-340.421970554926
 20
194.582389580974
  0
LWPOLYLINE
  5
365
330
1F
100
AcDbEntity
  8
Sichtbare_Kanten_TC_020513_DIN_
  6
Continuous
 62
     7
100
AcDbPolyline
 90
        2
 70
     0
 43
0.5
 10
-455.421970554926
 20
196.982389580974
 10
-449.421970554926
 20
196.982389580974
  0
LWPOLYLINE
  5
366
330
1F
100
AcDbEntity
  8
Sichtbare_Kanten_TC_020513_DIN_
  6
Continuous
 62
     7
100
AcDbPolyline
 90
        2
 70
     0
 43
0.5
 10
-340.421970554926
 20
196.982389580974
 10
-449.421970554926
 20
196.982389580974
  0
LWPOLYLINE
  5
367
330
1F
100
AcDbEntity
  8
Sichtbare_Kanten_TC_020513_DIN_
  6
Continuous
 62
     7
100
AcDbPolyline
 90
        2
 70
     0
 43
0.5
 10
-340.421970554926
 20
196.982389580974
 10
-334.421970554926
 20
196.982389580974
  0
LWPOLYLINE
  5
368
330
1F
100
AcDbEntity
  8
Sichtbare_Kanten_TC_020513_DIN_
  6
Continuous
 62
     7
100
AcDbPolyline
 90
        2
 70
     0
 43
0.5
 10
-449.421970554926
 20
197.582389580974
 10
-455.421970554926
 20
197.582389580974
  0
LWPOLYLINE
  5
369
330
1F
100
AcDbEntity
  8
Sichtbare_Kanten_TC_020513_DIN_
  6
Continuous
 62
     7
100
AcDbPolyline
 90
        2
 70
     0
 43
0.5
 10
-454.721970554926
 20
198.282389580974
 10
-455.421970554926
 20
197.582389580974
  0
LWPOLYLINE
  5
36A
330
1F
100
AcDbEntity
  8
Sichtbare_Kanten_TC_020513_DIN_
  6
Continuous
 62
     7
100
AcDbPolyline
 90
        2
 70
     0
 43
0.5
 10
-334.421970554926
 20
197.582389580974
 10
-340.421970554926
 20
197.582389580974
  0
LWPOLYLINE
  5
36B
330
1F
100
AcDbEntity
  8
Sichtbare_Kanten_TC_020513_DIN_
  6
Continuous
 62
     7
100
AcDbPolyline
 90
        2
 70
     0
 43
0.5
 10
-449.421970554926
 20
197.582389580974
 10
-340.421970554926
 20
197.582389580974
  0
LWPOLYLINE
  5
36C
330
1F
100
AcDbEntity
  8
Sichtbare_Kanten_TC_020513_DIN_
  6
Continuous
 62
     7
100
AcDbPolyline
 90
        2
 70
     0
 43
0.5
 10
-455.421970554926
 20
199.982389580974
 10
-454.721970554926
 20
199.282389580974
  0
LWPOLYLINE
  5
36D
330
1F
100
AcDbEntity
  8
Sichtbare_Kanten_TC_020513_DIN_
  6
Continuous
 62
     7
100
AcDbPolyline
 90
        2
 70
     0
 43
0.5
 10
-340.421970554926
 20
199.982389580974
 10
-449.421970554926
 20
199.982389580974
  0
LWPOLYLINE
  5
36E
330
1F
100
AcDbEntity
  8
Sichtbare_Kanten_TC_020513_DIN_
  6
Continuous
 62
     7
100
AcDbPolyline
 90
        2
 70
     0
 43
0.5
 10
-340.421970554926
 20
199.982389580974
 10
-334.421970554926
 20
199.982389580974
  0
LWPOLYLINE
  5
36F
330
1F
100
AcDbEntity
  8
Sichtbare_Kanten_TC_020513_DIN_
  6
Continuous
 62
     7
100
AcDbPolyline
 90
        2
 70
     0
 43
0.5
 10
-334.421970554926
 20
199.982389580974
 10
-335.121970554926
 20
199.282389580974
  0
LWPOLYLINE
  5
370
330
1F
100
AcDbEntity
  8
Sichtbare_Kanten_TC_020513_DIN_
  6
Continuous
 62
     7
100
AcDbPolyline
 90
        2
 70
     0
 43
0.5
 10
-455.421970554926
 20
199.982389580974
 10
-449.421970554926
 20
199.982389580974
  0
LWPOLYLINE
  5
371
330
1F
100
AcDbEntity
  8
Sichtbare_Kanten_TC_020513_DIN_
  6
Continuous
 62
     7
100
AcDbPolyline
 90
        2
 70
     0
 43
0.5
 10
-454.721970554926
 20
201.282389580974
 10
-449.421970554926
 20
201.282389580974
  0
LWPOLYLINE
  5
372
330
1F
100
AcDbEntity
  8
Sichtbare_Kanten_TC_020513_DIN_
  6
Continuous
 62
     7
100
AcDbPolyline
 90
        2
 70
     0
 43
0.5
 10
-449.421970554926
 20
200.582389580974
 10
-455.421970554926
 20
200.582389580974
  0
LWPOLYLINE
  5
373
330
1F
100
AcDbEntity
  8
Sichtbare_Kanten_TC_020513_DIN_
  6
Continuous
 62
     7
100
AcDbPolyline
 90
        2
 70
     0
 43
0.5
 10
-454.721970554926
 20
201.282389580974
 10
-455.421970554926
 20
200.582389580974
  0
LWPOLYLINE
  5
374
330
1F
100
AcDbEntity
  8
Sichtbare_Kanten_TC_020513_DIN_
  6
Continuous
 62
     7
100
AcDbPolyline
 90
        2
 70
     0
 43
0.5
 10
-334.421970554926
 20
200.582389580974
 10
-340.421970554926
 20
200.582389580974
  0
LWPOLYLINE
  5
375
330
1F
100
AcDbEntity
  8
Sichtbare_Kanten_TC_020513_DIN_
  6
Continuous
 62
     7
100
AcDbPolyline
 90
        2
 70
     0
 43
0.5
 10
-340.421970554926
 20
201.282389580974
 10
-335.121970554926
 20
201.282389580974
  0
LWPOLYLINE
  5
376
330
1F
100
AcDbEntity
  8
Sichtbare_Kanten_TC_020513_DIN_
  6
Continuous
 62
     7
100
AcDbPolyline
 90
        2
 70
     0
 43
0.5
 10
-334.421970554926
 20
200.582389580974
 10
-335.121970554926
 20
201.282389580974
  0
LWPOLYLINE
  5
377
330
1F
100
AcDbEntity
  8
Sichtbare_Kanten_TC_020513_DIN_
  6
Continuous
 62
     7
100
AcDbPolyline
 90
        2
 70
     0
 43
0.5
 10
-449.421970554926
 20
200.582389580974
 10
-340.421970554926
 20
200.582389580974
  0
LWPOLYLINE
  5
378
330
1F
100
AcDbEntity
  8
Sichtbare_Kanten_TC_020513_DIN_
  6
Continuous
 62
     7
100
AcDbPolyline
 90
        2
 70
     0
 43
0.5
 10
-340.421970554926
 20
201.282389580974
 10
-449.421970554926
 20
201.282389580974
  0
LWPOLYLINE
  5
379
330
1F
100
AcDbEntity
  8
Sichtbare_Kanten_TC_020513_DIN_
  6
Continuous
 62
     7
100
AcDbPolyline
 90
        2
 70
     0
 43
0.5
 10
-335.121970554926
 20
202.282389580974
 10
-340.421970554926
 20
202.282389580974
  0
LWPOLYLINE
  5
37A
330
1F
100
AcDbEntity
  8
Sichtbare_Kanten_TC_020513_DIN_
  6
Continuous
 62
     7
100
AcDbPolyline
 90
        2
 70
     0
 43
0.5
 10
-335.121970554926
 20
202.282389580974
 10
-334.421970554926
 20
202.982389580974
  0
LWPOLYLINE
  5
37B
330
1F
100
AcDbEntity
  8
Sichtbare_Kanten_TC_020513_DIN_
  6
Continuous
 62
     7
100
AcDbPolyline
 90
        2
 70
     0
 43
0.5
 10
-449.421970554926
 20
202.282389580974
 10
-340.421970554926
 20
202.282389580974
  0
LWPOLYLINE
  5
37C
330
1F
100
AcDbEntity
  8
Sichtbare_Kanten_TC_020513_DIN_
  6
Continuous
 62
     7
100
AcDbPolyline
 90
        2
 70
     0
 43
0.5
 10
-449.421970554926
 20
202.282389580974
 10
-454.721970554926
 20
202.282389580974
  0
LWPOLYLINE
  5
37D
330
1F
100
AcDbEntity
  8
Sichtbare_Kanten_TC_020513_DIN_
  6
Continuous
 62
     7
100
AcDbPolyline
 90
        2
 70
     0
 43
0.5
 10
-455.421970554926
 20
202.982389580974
 10
-449.421970554926
 20
202.982389580974
  0
LWPOLYLINE
  5
37E
330
1F
100
AcDbEntity
  8
Sichtbare_Kanten_TC_020513_DIN_
  6
Continuous
 62
     7
100
AcDbPolyline
 90
        2
 70
     0
 43
0.5
 10
-454.721970554926
 20
202.282389580974
 10
-455.421970554926
 20
202.982389580974
  0
LWPOLYLINE
  5
37F
330
1F
100
AcDbEntity
  8
Sichtbare_Kanten_TC_020513_DIN_
  6
Continuous
 62
     7
100
AcDbPolyline
 90
        2
 70
     0
 43
0.5
 10
-340.421970554926
 20
202.982389580974
 10
-449.421970554926
 20
202.982389580974
  0
LWPOLYLINE
  5
380
330
1F
100
AcDbEntity
  8
Sichtbare_Kanten_TC_020513_DIN_
  6
Continuous
 62
     7
100
AcDbPolyline
 90
        2
 70
     0
 43
0.5
 10
-340.421970554926
 20
202.982389580974
 10
-334.421970554926
 20
202.982389580974
  0
LWPOLYLINE
  5
381
330
1F
100
AcDbEntity
  8
Sichtbare_Kanten_TC_020513_DIN_
  6
Continuous
 62
     7
100
AcDbPolyline
 90
        2
 70
     0
 43
0.5
 10
-454.721970554926
 20
204.282389580974
 10
-449.421970554926
 20
204.282389580974
  0
LWPOLYLINE
  5
382
330
1F
100
AcDbEntity
  8
Sichtbare_Kanten_TC_020513_DIN_
  6
Continuous
 62
     7
100
AcDbPolyline
 90
        2
 70
     0
 43
0.5
 10
-449.421970554926
 20
203.582389580974
 10
-455.421970554926
 20
203.582389580974
  0
LWPOLYLINE
  5
383
330
1F
100
AcDbEntity
  8
Sichtbare_Kanten_TC_020513_DIN_
  6
Continuous
 62
     7
100
AcDbPolyline
 90
        2
 70
     0
 43
0.5
 10
-454.721970554926
 20
204.282389580974
 10
-455.421970554926
 20
203.582389580974
  0
LWPOLYLINE
  5
384
330
1F
100
AcDbEntity
  8
Sichtbare_Kanten_TC_020513_DIN_
  6
Continuous
 62
     7
100
AcDbPolyline
 90
        2
 70
     0
 43
0.5
 10
-334.421970554926
 20
203.582389580974
 10
-340.421970554926
 20
203.582389580974
  0
LWPOLYLINE
  5
385
330
1F
100
AcDbEntity
  8
Sichtbare_Kanten_TC_020513_DIN_
  6
Continuous
 62
     7
100
AcDbPolyline
 90
        2
 70
     0
 43
0.5
 10
-340.421970554926
 20
204.282389580974
 10
-335.121970554926
 20
204.282389580974
  0
LWPOLYLINE
  5
386
330
1F
100
AcDbEntity
  8
Sichtbare_Kanten_TC_020513_DIN_
  6
Continuous
 62
     7
100
AcDbPolyline
 90
        2
 70
     0
 43
0.5
 10
-334.421970554926
 20
203.582389580974
 10
-335.121970554926
 20
204.282389580974
  0
LWPOLYLINE
  5
387
330
1F
100
AcDbEntity
  8
Sichtbare_Kanten_TC_020513_DIN_
  6
Continuous
 62
     7
100
AcDbPolyline
 90
        2
 70
     0
 43
0.5
 10
-449.421970554926
 20
203.582389580974
 10
-340.421970554926
 20
203.582389580974
  0
LWPOLYLINE
  5
388
330
1F
100
AcDbEntity
  8
Sichtbare_Kanten_TC_020513_DIN_
  6
Continuous
 62
     7
100
AcDbPolyline
 90
        2
 70
     0
 43
0.5
 10
-340.421970554926
 20
204.282389580974
 10
-449.421970554926
 20
204.282389580974
  0
LWPOLYLINE
  5
389
330
1F
100
AcDbEntity
  8
Sichtbare_Kanten_TC_020513_DIN_
  6
Continuous
 62
     7
100
AcDbPolyline
 90
        2
 70
     0
 43
0.5
 10
-449.421970554926
 20
205.282389580974
 10
-454.721970554926
 20
205.282389580974
  0
LWPOLYLINE
  5
38A
330
1F
100
AcDbEntity
  8
Sichtbare_Kanten_TC_020513_DIN_
  6
Continuous
 62
     7
100
AcDbPolyline
 90
        2
 70
     0
 43
0.5
 10
-455.421970554926
 20
205.982389580973
 10
-454.721970554926
 20
205.282389580974
  0
LWPOLYLINE
  5
38B
330
1F
100
AcDbEntity
  8
Sichtbare_Kanten_TC_020513_DIN_
  6
Continuous
 62
     7
100
AcDbPolyline
 90
        2
 70
     0
 43
0.5
 10
-340.421970554926
 20
205.982389580973
 10
-449.421970554926
 20
205.982389580973
  0
LWPOLYLINE
  5
38C
330
1F
100
AcDbEntity
  8
Sichtbare_Kanten_TC_020513_DIN_
  6
Continuous
 62
     7
100
AcDbPolyline
 90
        2
 70
     0
 43
0.5
 10
-449.421970554926
 20
205.282389580974
 10
-340.421970554926
 20
205.282389580974
  0
LWPOLYLINE
  5
38D
330
1F
100
AcDbEntity
  8
Sichtbare_Kanten_TC_020513_DIN_
  6
Continuous
 62
     7
100
AcDbPolyline
 90
        2
 70
     0
 43
0.5
 10
-340.421970554926
 20
205.982389580973
 10
-334.421970554926
 20
205.982389580973
  0
LWPOLYLINE
  5
38E
330
1F
100
AcDbEntity
  8
Sichtbare_Kanten_TC_020513_DIN_
  6
Continuous
 62
     7
100
AcDbPolyline
 90
        2
 70
     0
 43
0.5
 10
-335.121970554926
 20
205.282389580974
 10
-340.421970554926
 20
205.282389580974
  0
LWPOLYLINE
  5
38F
330
1F
100
AcDbEntity
  8
Sichtbare_Kanten_TC_020513_DIN_
  6
Continuous
 62
     7
100
AcDbPolyline
 90
        2
 70
     0
 43
0.5
 10
-334.421970554926
 20
205.982389580973
 10
-335.121970554926
 20
205.282389580974
  0
LWPOLYLINE
  5
390
330
1F
100
AcDbEntity
  8
Sichtbare_Kanten_TC_020513_DIN_
  6
Continuous
 62
     7
100
AcDbPolyline
 90
        2
 70
     0
 43
0.5
 10
-455.421970554926
 20
205.982389580973
 10
-449.421970554926
 20
205.982389580973
  0
LWPOLYLINE
  5
391
330
1F
100
AcDbEntity
  8
Sichtbare_Kanten_TC_020513_DIN_
  6
Continuous
 62
     7
100
AcDbPolyline
 90
        2
 70
     0
 43
0.5
 10
-454.721970554926
 20
207.282389580974
 10
-449.421970554926
 20
207.282389580974
  0
LWPOLYLINE
  5
392
330
1F
100
AcDbEntity
  8
Sichtbare_Kanten_TC_020513_DIN_
  6
Continuous
 62
     7
100
AcDbPolyline
 90
        2
 70
     0
 43
0.5
 10
-449.421970554926
 20
206.582389580974
 10
-455.421970554926
 20
206.582389580974
  0
LWPOLYLINE
  5
393
330
1F
100
AcDbEntity
  8
Sichtbare_Kanten_TC_020513_DIN_
  6
Continuous
 62
     7
100
AcDbPolyline
 90
        2
 70
     0
 43
0.5
 10
-454.721970554926
 20
207.282389580974
 10
-455.421970554926
 20
206.582389580974
  0
LWPOLYLINE
  5
394
330
1F
100
AcDbEntity
  8
Sichtbare_Kanten_TC_020513_DIN_
  6
Continuous
 62
     7
100
AcDbPolyline
 90
        2
 70
     0
 43
0.5
 10
-334.421970554926
 20
206.582389580974
 10
-340.421970554926
 20
206.582389580974
  0
LWPOLYLINE
  5
395
330
1F
100
AcDbEntity
  8
Sichtbare_Kanten_TC_020513_DIN_
  6
Continuous
 62
     7
100
AcDbPolyline
 90
        2
 70
     0
 43
0.5
 10
-340.421970554926
 20
207.282389580974
 10
-335.121970554926
 20
207.282389580974
  0
LWPOLYLINE
  5
396
330
1F
100
AcDbEntity
  8
Sichtbare_Kanten_TC_020513_DIN_
  6
Continuous
 62
     7
100
AcDbPolyline
 90
        2
 70
     0
 43
0.5
 10
-334.421970554926
 20
206.582389580974
 10
-335.121970554926
 20
207.282389580974
  0
LWPOLYLINE
  5
397
330
1F
100
AcDbEntity
  8
Sichtbare_Kanten_TC_020513_DIN_
  6
Continuous
 62
     7
100
AcDbPolyline
 90
        2
 70
     0
 43
0.5
 10
-449.421970554926
 20
206.582389580974
 10
-340.421970554926
 20
206.582389580974
  0
LWPOLYLINE
  5
398
330
1F
100
AcDbEntity
  8
Sichtbare_Kanten_TC_020513_DIN_
  6
Continuous
 62
     7
100
AcDbPolyline
 90
        2
 70
     0
 43
0.5
 10
-340.421970554926
 20
207.282389580974
 10
-449.421970554926
 20
207.282389580974
  0
LWPOLYLINE
  5
399
330
1F
100
AcDbEntity
  8
Sichtbare_Kanten_TC_020513_DIN_
  6
Continuous
 62
     7
100
AcDbPolyline
 90
        2
 70
     0
 43
0.5
 10
-335.121970554926
 20
208.282389580974
 10
-340.421970554926
 20
208.282389580974
  0
LWPOLYLINE
  5
39A
330
1F
100
AcDbEntity
  8
Sichtbare_Kanten_TC_020513_DIN_
  6
Continuous
 62
     7
100
AcDbPolyline
 90
        2
 70
     0
 43
0.5
 10
-340.421970554926
 20
208.982389580974
 10
-334.421970554926
 20
208.982389580974
  0
LWPOLYLINE
  5
39B
330
1F
100
AcDbEntity
  8
Sichtbare_Kanten_TC_020513_DIN_
  6
Continuous
 62
     7
100
AcDbPolyline
 90
        2
 70
     0
 43
0.5
 10
-335.121970554926
 20
208.282389580974
 10
-334.421970554926
 20
208.982389580974
  0
LWPOLYLINE
  5
39C
330
1F
100
AcDbEntity
  8
Sichtbare_Kanten_TC_020513_DIN_
  6
Continuous
 62
     7
100
AcDbPolyline
 90
        2
 70
     0
 43
0.5
 10
-449.421970554926
 20
208.282389580974
 10
-340.421970554926
 20
208.282389580974
  0
LWPOLYLINE
  5
39D
330
1F
100
AcDbEntity
  8
Sichtbare_Kanten_TC_020513_DIN_
  6
Continuous
 62
     7
100
AcDbPolyline
 90
        2
 70
     0
 43
0.5
 10
-449.421970554926
 20
208.282389580974
 10
-454.721970554926
 20
208.282389580974
  0
LWPOLYLINE
  5
39E
330
1F
100
AcDbEntity
  8
Sichtbare_Kanten_TC_020513_DIN_
  6
Continuous
 62
     7
100
AcDbPolyline
 90
        2
 70
     0
 43
0.5
 10
-455.421970554926
 20
208.982389580974
 10
-449.421970554926
 20
208.982389580974
  0
LWPOLYLINE
  5
39F
330
1F
100
AcDbEntity
  8
Sichtbare_Kanten_TC_020513_DIN_
  6
Continuous
 62
     7
100
AcDbPolyline
 90
        2
 70
     0
 43
0.5
 10
-454.721970554926
 20
208.282389580974
 10
-455.421970554926
 20
208.982389580974
  0
LWPOLYLINE
  5
3A0
330
1F
100
AcDbEntity
  8
Sichtbare_Kanten_TC_020513_DIN_
  6
Continuous
 62
     7
100
AcDbPolyline
 90
        2
 70
     0
 43
0.5
 10
-340.421970554926
 20
208.982389580974
 10
-449.421970554926
 20
208.982389580974
  0
LWPOLYLINE
  5
3A1
330
1F
100
AcDbEntity
  8
Sichtbare_Kanten_TC_020513_DIN_
  6
Continuous
 62
     7
100
AcDbPolyline
 90
        2
 70
     0
 43
0.5
 10
-334.421970554926
 20
194.582389580974
 10
-335.121970554926
 20
195.282389580974
  0
LWPOLYLINE
  5
3A2
330
1F
100
AcDbEntity
  8
Sichtbare_Kanten_TC_020513_DIN_
  6
Continuous
 62
     7
100
AcDbPolyline
 90
        2
 70
     0
 43
0.5
 10
-449.421970554926
 20
199.282389580974
 10
-454.721970554926
 20
199.282389580974
  0
LWPOLYLINE
  5
3A3
330
1F
100
AcDbEntity
  8
Sichtbare_Kanten_TC_020513_DIN_
  6
Continuous
 62
     7
100
AcDbPolyline
 90
        2
 70
     0
 43
0.5
 10
-449.421970554926
 20
199.282389580974
 10
-340.421970554926
 20
199.282389580974
  0
LWPOLYLINE
  5
3A4
330
1F
100
AcDbEntity
  8
Sichtbare_Kanten_TC_020513_DIN_
  6
Continuous
 62
     7
100
AcDbPolyline
 90
        2
 70
     0
 43
0.5
 10
-335.121970554926
 20
199.282389580974
 10
-340.421970554926
 20
199.282389580974
  0
LWPOLYLINE
  5
3A5
330
1F
100
AcDbEntity
  8
Sichtbare_Kanten_TC_020513_DIN_
  6
Continuous
 62
     7
100
AcDbPolyline
 90
        2
 70
     0
 43
0.5
 10
-340.421970554926
 20
198.282389580974
 10
-335.121970554926
 20
198.282389580974
  0
LWPOLYLINE
  5
3A6
330
1F
100
AcDbEntity
  8
Sichtbare_Kanten_TC_020513_DIN_
  6
Continuous
 62
     7
100
AcDbPolyline
 90
        2
 70
     0
 43
0.5
 10
-340.421970554926
 20
198.282389580974
 10
-449.421970554926
 20
198.282389580974
  0
LWPOLYLINE
  5
3A7
330
1F
100
AcDbEntity
  8
Sichtbare_Kanten_TC_020513_DIN_
  6
Continuous
 62
     7
100
AcDbPolyline
 90
        2
 70
     0
 43
0.5
 10
-454.721970554926
 20
198.282389580974
 10
-449.421970554926
 20
198.282389580974
  0
LWPOLYLINE
  5
3A8
330
1F
100
AcDbEntity
  8
Sichtbare_Kanten_TC_020513_DIN_
  6
Continuous
 62
     7
100
AcDbPolyline
 90
        2
 70
     0
 43
0.5
 10
-334.421970554926
 20
197.582389580974
 10
-335.121970554926
 20
198.282389580974
  0
LWPOLYLINE
  5
3A9
330
1F
100
AcDbEntity
  8
Sichtbare_Kanten_TC_020513_DIN_
  6
Continuous
 62
     7
100
AcDbPolyline
 90
        2
 70
     0
 43
0.5
 10
-334.421970554926
 20
196.982389580974
 10
-335.121970554926
 20
196.282389580974
  0
LWPOLYLINE
  5
3AA
330
1F
100
AcDbEntity
  8
Sichtbare_Kanten_TC_020513_DIN_
  6
Continuous
 62
     7
100
AcDbPolyline
 90
        2
 70
     0
 43
0.5
 10
-455.421970554926
 20
196.982389580974
 10
-454.721970554926
 20
196.282389580974
  0
LWPOLYLINE
  5
3AB
330
1F
100
AcDbEntity
  8
Sichtbare_Kanten_TC_020513_DIN_
  6
Continuous
 62
     7
100
AcDbPolyline
 90
        2
 70
     0
 43
0.5
 10
-454.721970554926
 20
195.282389580974
 10
-455.421970554926
 20
194.582389580974
  0
LWPOLYLINE
  5
3AC
330
1F
100
AcDbEntity
  8
Sichtbare_Kanten_TC_020513_DIN_
  6
Continuous
 62
     7
100
AcDbPolyline
 90
        2
 70
     0
 43
0.5
 10
-340.421970554926
 20
195.282389580974
 10
-335.121970554926
 20
195.282389580974
  0
LWPOLYLINE
  5
3AD
330
1F
100
AcDbEntity
  8
Sichtbare_Kanten_TC_020513_DIN_
  6
Continuous
 62
     7
100
AcDbPolyline
 90
        2
 70
     0
 43
0.5
 10
-340.421970554926
 20
195.282389580974
 10
-449.421970554926
 20
195.282389580974
  0
LWPOLYLINE
  5
3AE
330
1F
100
AcDbEntity
  8
Sichtbare_Kanten_TC_020513_DIN_
  6
Continuous
 62
     7
100
AcDbPolyline
 90
        2
 70
     0
 43
0.5
 10
-454.721970554926
 20
195.282389580974
 10
-449.421970554926
 20
195.282389580974
  0
LWPOLYLINE
  5
3AF
330
1F
100
AcDbEntity
  8
Sichtbare_Kanten_TC_020513_DIN_
  6
Continuous
 62
     7
100
AcDbPolyline
 90
        2
 70
     0
 43
0.5
 10
-449.421970554926
 20
196.282389580974
 10
-454.721970554926
 20
196.282389580974
  0
LWPOLYLINE
  5
3B0
330
1F
100
AcDbEntity
  8
Sichtbare_Kanten_TC_020513_DIN_
  6
Continuous
 62
     7
100
AcDbPolyline
 90
        2
 70
     0
 43
0.5
 10
-449.421970554926
 20
196.282389580974
 10
-340.421970554926
 20
196.282389580974
  0
LWPOLYLINE
  5
3B1
330
1F
100
AcDbEntity
  8
Sichtbare_Kanten_TC_020513_DIN_
  6
Continuous
 62
     7
100
AcDbPolyline
 90
        2
 70
     0
 43
0.5
 10
-335.121970554926
 20
196.282389580974
 10
-340.421970554926
 20
196.282389580974
  0
LWPOLYLINE
  5
3B2
330
1F
100
AcDbEntity
  8
Sichtbare_Kanten_TC_020513_DIN_
  6
Continuous
 62
     7
100
AcDbPolyline
 90
        2
 70
     0
 43
0.5
 10
-449.421970554926
 20
191.782389580974
 10
-455.421970554926
 20
191.782389580974
  0
LWPOLYLINE
  5
3B3
330
1F
100
AcDbEntity
  8
Sichtbare_Kanten_TC_020513_DIN_
  6
Continuous
 62
     7
100
AcDbPolyline
 90
        2
 70
     0
 43
0.5
 10
-460.921970554926
 20
182.782389580974
 10
-460.921970554926
 20
186.782389580974
  0
LWPOLYLINE
  5
3B4
330
1F
100
AcDbEntity
  8
Sichtbare_Kanten_TC_020513_DIN_
  6
Continuous
 62
     7
100
AcDbPolyline
 90
        2
 70
     0
 43
0.5
 10
-449.421970554926
 20
186.782389580974
 10
-460.921970554926
 20
186.782389580974
  0
LWPOLYLINE
  5
3B5
330
1F
100
AcDbEntity
  8
Sichtbare_Kanten_TC_020513_DIN_
  6
Continuous
 62
     7
100
AcDbPolyline
 90
        2
 70
     0
 43
0.5
 10
-449.421970554926
 20
186.782389580974
 10
-340.421970554926
 20
186.782389580974
  0
LWPOLYLINE
  5
3B6
330
1F
100
AcDbEntity
  8
Sichtbare_Kanten_TC_020513_DIN_
  6
Continuous
 62
     7
100
AcDbPolyline
 90
        2
 70
     0
 43
0.5
 10
-328.921970554926
 20
186.782389580974
 10
-340.421970554926
 20
186.782389580974
  0
LWPOLYLINE
  5
3B7
330
1F
100
AcDbEntity
  8
Sichtbare_Kanten_TC_020513_DIN_
  6
Continuous
 62
     7
100
AcDbPolyline
 90
        2
 70
     0
 43
0.5
 10
-328.921970554926
 20
182.782389580974
 10
-328.921970554926
 20
186.782389580974
  0
LWPOLYLINE
  5
3B8
330
1F
100
AcDbEntity
  8
Sichtbare_Kanten_TC_020513_DIN_
  6
Continuous
 62
     7
100
AcDbPolyline
 90
        2
 70
     0
 43
0.5
 10
-449.421970554926
 20
191.782389580974
 10
-340.421970554926
 20
191.782389580974
  0
LWPOLYLINE
  5
3B9
330
1F
100
AcDbEntity
  8
Sichtbare_Kanten_TC_020513_DIN_
  6
Continuous
 62
     7
100
AcDbPolyline
 90
        2
 70
     0
 43
0.5
 10
-334.421970554926
 20
191.782389580974
 10
-340.421970554926
 20
191.782389580974
  0
LWPOLYLINE
  5
3BA
330
1F
100
AcDbEntity
  8
Sichtbare_Kanten_TC_020513_DIN_
  6
Continuous
 62
     7
100
AcDbPolyline
 90
        2
 70
     0
 43
0.5
 10
-328.921970554926
 20
186.782389580974
 10
-334.421970554926
 20
191.782389580974
  0
LWPOLYLINE
  5
3BB
330
1F
100
AcDbEntity
  8
Sichtbare_Kanten_TC_020513_DIN_
  6
Continuous
 62
     7
100
AcDbPolyline
 90
        2
 70
     0
 43
0.5
 10
-460.921970554926
 20
186.782389580974
 10
-455.421970554926
 20
191.782389580974
  0
LWPOLYLINE
  5
3BC
330
1F
100
AcDbEntity
  8
Sichtbare_Kanten_TC_020513_DIN_
  6
Continuous
 62
     7
100
AcDbPolyline
 90
        2
 70
     0
 43
0.5
 10
-449.421970554926
 20
182.782389580974
 10
-460.921970554926
 20
182.782389580974
  0
LWPOLYLINE
  5
3BD
330
1F
100
AcDbEntity
  8
Sichtbare_Kanten_TC_020513_DIN_
  6
Continuous
 62
     7
100
AcDbPolyline
 90
        2
 70
     0
 43
0.5
 10
-449.421970554926
 20
182.782389580974
 10
-340.421970554926
 20
182.782389580974
  0
LWPOLYLINE
  5
3BE
330
1F
100
AcDbEntity
  8
Sichtbare_Kanten_TC_020513_DIN_
  6
Continuous
 62
     7
100
AcDbPolyline
 90
        2
 70
     0
 43
0.5
 10
-328.921970554926
 20
182.782389580974
 10
-340.421970554926
 20
182.782389580974
  0
LWPOLYLINE
  5
3BF
330
1F
100
AcDbEntity
  8
Sichtbare_Kanten_TC_020513_DIN_
  6
Continuous
 62
     7
100
AcDbPolyline
 90
        2
 70
     0
 43
0.5
 10
-321.521970554926
 20
195.282389580974
 10
-327.821970554926
 20
195.282389580974
  0
LWPOLYLINE
  5
3C0
330
1F
100
AcDbEntity
  8
Sichtbare_Kanten_TC_020513_DIN_
  6
Continuous
 62
     7
100
AcDbPolyline
 90
        2
 70
     0
 43
0.5
 10
-321.521970554926
 20
187.282389580974
 10
-327.821970554926
 20
187.282389580974
  0
LWPOLYLINE
  5
3C1
330
1F
100
AcDbEntity
  8
Sichtbare_Kanten_TC_020513_DIN_
  6
Continuous
 62
     7
100
AcDbPolyline
 90
        2
 70
     0
 43
0.5
 10
-327.921970554926
 20
195.282389580974
 10
-328.921970554926
 20
195.282389580974
  0
LWPOLYLINE
  5
3C2
330
1F
100
AcDbEntity
  8
Sichtbare_Kanten_TC_020513_DIN_
  6
Continuous
 62
     7
100
AcDbPolyline
 90
        2
 70
     0
 43
0.5
 10
-327.921970554926
 20
187.282389580974
 10
-328.921970554926
 20
187.282389580974
  0
LWPOLYLINE
  5
3C3
330
1F
100
AcDbEntity
  8
Sichtbare_Kanten_TC_020513_DIN_
  6
Continuous
 62
     7
100
AcDbPolyline
 90
        2
 70
     0
 43
0.5
 10
-321.421970554926
 20
193.032389580974
 10
-321.471970554926
 20
193.032389580974
  0
LWPOLYLINE
  5
3C4
330
1F
100
AcDbEntity
  8
Sichtbare_Kanten_TC_020513_DIN_
  6
Continuous
 62
     7
100
AcDbPolyline
 90
        2
 70
     0
 43
0.5
 10
-321.421970554926
 20
189.532389580974
 10
-321.471970554926
 20
189.532389580974
  0
LWPOLYLINE
  5
3C5
330
1F
100
AcDbEntity
  8
Sichtbare_Kanten_TC_020513_DIN_
  6
Continuous
 62
     7
100
AcDbPolyline
 90
        2
 70
     0
 43
0.5
 10
-319.671970554926
 20
193.532389580974
 10
-321.171970554926
 20
193.532389580974
  0
LWPOLYLINE
  5
3C6
330
1F
100
AcDbEntity
  8
Sichtbare_Kanten_TC_020513_DIN_
  6
Continuous
 62
     7
100
AcDbPolyline
 90
        2
 70
     0
 43
0.5
 10
-319.671970554926
 20
189.032389580974
 10
-321.171970554926
 20
189.032389580974
  0
LWPOLYLINE
  5
3C7
330
1F
100
AcDbEntity
  8
Sichtbare_Kanten_TC_020513_DIN_
  6
Continuous
 62
     7
100
AcDbPolyline
 90
        2
 70
     0
 43
0.5
 10
-321.471970554926
 20
193.532389580974
 10
-321.521970554926
 20
193.532389580974
  0
LWPOLYLINE
  5
3C8
330
1F
100
AcDbEntity
  8
Sichtbare_Kanten_TC_020513_DIN_
  6
Continuous
 62
     7
100
AcDbPolyline
 90
        2
 70
     0
 43
0.5
 10
-321.471970554926
 20
189.032389580974
 10
-321.521970554926
 20
189.032389580974
  0
LWPOLYLINE
  5
3C9
330
1F
100
AcDbEntity
  8
Sichtbare_Kanten_TC_020513_DIN_
  6
Continuous
 62
     7
100
AcDbPolyline
 90
        2
 70
     0
 43
0.5
 10
-327.821970554926
 20
193.532389580974
 10
-327.921970554926
 20
193.532389580974
  0
LWPOLYLINE
  5
3CA
330
1F
100
AcDbEntity
  8
Sichtbare_Kanten_TC_020513_DIN_
  6
Continuous
 62
     7
100
AcDbPolyline
 90
        2
 70
     0
 43
0.5
 10
-327.821970554926
 20
189.032389580974
 10
-327.921970554926
 20
189.032389580974
  0
LWPOLYLINE
  5
3CB
330
1F
100
AcDbEntity
  8
Sichtbare_Kanten_TC_020513_DIN_
  6
Continuous
 62
     7
100
AcDbPolyline
 90
        2
 70
     0
 43
0.5
 10
-327.821970554926
 20
195.282389580974
 10
-327.821970554926
 20
187.282389580974
  0
LWPOLYLINE
  5
3CC
330
1F
100
AcDbEntity
  8
Sichtbare_Kanten_TC_020513_DIN_
  6
Continuous
 62
     7
100
AcDbPolyline
 90
        2
 70
     0
 43
0.5
 10
-321.521970554926
 20
195.282389580974
 10
-321.521970554926
 20
187.282389580974
  0
LWPOLYLINE
  5
3CD
330
1F
100
AcDbEntity
  8
Sichtbare_Kanten_TC_020513_DIN_
  6
Continuous
 62
     7
100
AcDbPolyline
 90
        2
 70
     0
 43
0.5
 10
-327.921970554926
 20
195.282389580974
 10
-327.921970554926
 20
187.282389580974
  0
LWPOLYLINE
  5
3CE
330
1F
100
AcDbEntity
  8
Sichtbare_Kanten_TC_020513_DIN_
  6
Continuous
 62
     7
100
AcDbPolyline
 90
        2
 70
     0
 43
0.5
 10
-321.471970554926
 20
193.532389580974
 10
-321.471970554926
 20
189.032389580974
  0
LWPOLYLINE
  5
3CF
330
1F
100
AcDbEntity
  8
Sichtbare_Kanten_TC_020513_DIN_
  6
Continuous
 62
     7
100
AcDbPolyline
 90
        2
 70
     0
 43
0.5
 10
-319.671970554926
 20
190.882389580974
 10
-319.671970554926
 20
189.032389580974
  0
LWPOLYLINE
  5
3D0
330
1F
100
AcDbEntity
  8
Sichtbare_Kanten_TC_020513_DIN_
  6
Continuous
 62
     7
100
AcDbPolyline
 90
        2
 70
     0
 43
0.5
 10
-319.671970554926
 20
193.532389580974
 10
-319.671970554926
 20
191.682389580974
  0
LWPOLYLINE
  5
3D1
330
1F
100
AcDbEntity
  8
Sichtbare_Kanten_TC_020513_DIN_
  6
Continuous
 62
     7
100
AcDbPolyline
 90
        2
 70
     0
 43
0.5
 10
-320.671970554926
 20
191.682389580974
 10
-319.671970554926
 20
191.682389580974
  0
LWPOLYLINE
  5
3D2
330
1F
100
AcDbEntity
  8
Sichtbare_Kanten_TC_020513_DIN_
  6
Continuous
 62
     7
100
AcDbPolyline
 90
        2
 70
     0
 43
0.5
 10
-320.671970554926
 20
191.682389580974
 10
-320.671970554926
 20
190.882389580974
  0
LWPOLYLINE
  5
3D3
330
1F
100
AcDbEntity
  8
Sichtbare_Kanten_TC_020513_DIN_
  6
Continuous
 62
     7
100
AcDbPolyline
 90
        2
 70
     0
 43
0.5
 10
-319.671970554926
 20
190.882389580974
 10
-320.671970554926
 20
190.882389580974
  0
LWPOLYLINE
  5
3D4
330
1F
100
AcDbEntity
  8
Sichtbare_Kanten_TC_020513_DIN_
  6
Continuous
 62
     7
100
AcDbPolyline
 90
        2
 70
     0
 43
0.5
 10
-321.421970554926
 20
195.032389580974
 10
-321.171970554926
 20
195.032389580974
  0
LWPOLYLINE
  5
3D5
330
1F
100
AcDbEntity
  8
Sichtbare_Kanten_TC_020513_DIN_
  6
Continuous
 62
     7
100
AcDbPolyline
 90
        2
 70
     0
 43
0.5
 10
-321.421970554926
 20
188.657389580974
 10
-321.171970554926
 20
188.657389580974
  0
LWPOLYLINE
  5
3D6
330
1F
100
AcDbEntity
  8
Sichtbare_Kanten_TC_020513_DIN_
  6
Continuous
 62
     7
100
AcDbPolyline
 90
        2
 70
     0
 43
0.5
 10
-321.421970554926
 20
195.032389580974
 10
-321.421970554926
 20
188.882389580974
  0
LWPOLYLINE
  5
3D7
330
1F
100
AcDbEntity
  8
Sichtbare_Kanten_TC_020513_DIN_
  6
Continuous
 62
     7
100
AcDbPolyline
 90
        2
 70
     0
 43
0.5
 10
-321.171970554926
 20
195.032389580974
 10
-321.171970554926
 20
188.882389580974
  0
LWPOLYLINE
  5
3D8
330
1F
100
AcDbEntity
  8
Sichtbare_Kanten_TC_020513_DIN_
  6
Continuous
 62
     7
100
AcDbPolyline
 90
        2
 70
     0
 43
0.5
 10
-321.421970554926
 20
188.882389580974
 10
-321.421970554926
 20
188.657389580974
  0
LWPOLYLINE
  5
3D9
330
1F
100
AcDbEntity
  8
Sichtbare_Kanten_TC_020513_DIN_
  6
Continuous
 62
     7
100
AcDbPolyline
 90
        2
 70
     0
 43
0.5
 10
-321.171970554926
 20
188.882389580974
 10
-321.171970554926
 20
188.657389580974
  0
LWPOLYLINE
  5
3DA
330
1F
100
AcDbEntity
  8
Sichtbare_Kanten_TC_020513_DIN_
  6
Continuous
 62
     7
100
AcDbPolyline
 90
        2
 70
     0
 43
0.5
 10
-455.421970554926
 20
199.782389580974
 10
-460.921970554926
 20
199.782389580974
  0
LWPOLYLINE
  5
3DB
330
1F
100
AcDbEntity
  8
Sichtbare_Kanten_TC_020513_DIN_
  6
Continuous
 62
     7
100
AcDbPolyline
 90
        2
 70
     0
 43
0.5
 10
-460.921970554926
 20
186.782389580974
 10
-460.921970554926
 20
191.282389580974
  0
LWPOLYLINE
  5
3DC
330
1F
100
AcDbEntity
  8
Sichtbare_Kanten_TC_020513_DIN_
  6
Continuous
 62
     7
100
AcDbPolyline
 90
        2
 70
     0
 43
0.5
 10
-460.921970554926
 20
199.782389580974
 10
-460.921970554926
 20
191.282389580974
  0
LWPOLYLINE
  5
3DD
330
1F
100
AcDbEntity
  8
Sichtbare_Kanten_TC_020513_DIN_
  6
Continuous
 62
     7
100
AcDbPolyline
 90
        2
 70
     0
 43
0.5
 10
-455.421970554926
 20
199.648989846314
 10
-455.088570820266
 20
199.648989846314
  0
LWPOLYLINE
  5
3DE
330
1F
100
AcDbEntity
  8
Sichtbare_Kanten_TC_020513_DIN_
  6
Continuous
 62
     7
100
AcDbPolyline
 90
        2
 70
     0
 43
0.5
 10
-454.671970554926
 20
198.282389580974
 10
-454.671970554926
 20
199.282389580974
  0
LWPOLYLINE
  5
3DF
330
1F
100
AcDbEntity
  8
Sichtbare_Kanten_TC_020513_DIN_
  6
Continuous
 62
     7
100
AcDbPolyline
 90
        2
 70
     0
 43
0.5
 10
-454.671970554926
 20
195.282389580974
 10
-454.671970554926
 20
196.282389580974
  0
LWPOLYLINE
  5
3E0
330
1F
100
AcDbEntity
  8
Sichtbare_Kanten_TC_020513_DIN_
  6
Continuous
 62
     7
100
AcDbPolyline
 90
        2
 70
     0
 43
0.5
 10
-462.021970554926
 20
195.282389580974
 10
-468.321970554926
 20
195.282389580974
  0
LWPOLYLINE
  5
3E1
330
1F
100
AcDbEntity
  8
Sichtbare_Kanten_TC_020513_DIN_
  6
Continuous
 62
     7
100
AcDbPolyline
 90
        2
 70
     0
 43
0.5
 10
-462.021970554926
 20
187.282389580974
 10
-468.321970554926
 20
187.282389580974
  0
LWPOLYLINE
  5
3E2
330
1F
100
AcDbEntity
  8
Sichtbare_Kanten_TC_020513_DIN_
  6
Continuous
 62
     7
100
AcDbPolyline
 90
        2
 70
     0
 43
0.5
 10
-460.921970554926
 20
195.282389580974
 10
-461.921970554926
 20
195.282389580974
  0
LWPOLYLINE
  5
3E3
330
1F
100
AcDbEntity
  8
Sichtbare_Kanten_TC_020513_DIN_
  6
Continuous
 62
     7
100
AcDbPolyline
 90
        2
 70
     0
 43
0.5
 10
-460.921970554926
 20
187.282389580974
 10
-461.921970554926
 20
187.282389580974
  0
LWPOLYLINE
  5
3E4
330
1F
100
AcDbEntity
  8
Sichtbare_Kanten_TC_020513_DIN_
  6
Continuous
 62
     7
100
AcDbPolyline
 90
        2
 70
     0
 43
0.5
 10
-468.371970554926
 20
193.032389580974
 10
-468.421970554926
 20
193.032389580974
  0
LWPOLYLINE
  5
3E5
330
1F
100
AcDbEntity
  8
Sichtbare_Kanten_TC_020513_DIN_
  6
Continuous
 62
     7
100
AcDbPolyline
 90
        2
 70
     0
 43
0.5
 10
-468.371970554926
 20
189.532389580974
 10
-468.421970554926
 20
189.532389580974
  0
LWPOLYLINE
  5
3E6
330
1F
100
AcDbEntity
  8
Sichtbare_Kanten_TC_020513_DIN_
  6
Continuous
 62
     7
100
AcDbPolyline
 90
        2
 70
     0
 43
0.5
 10
-468.321970554926
 20
193.532389580974
 10
-468.371970554926
 20
193.532389580974
  0
LWPOLYLINE
  5
3E7
330
1F
100
AcDbEntity
  8
Sichtbare_Kanten_TC_020513_DIN_
  6
Continuous
 62
     7
100
AcDbPolyline
 90
        2
 70
     0
 43
0.5
 10
-468.321970554926
 20
189.032389580974
 10
-468.371970554926
 20
189.032389580974
  0
LWPOLYLINE
  5
3E8
330
1F
100
AcDbEntity
  8
Sichtbare_Kanten_TC_020513_DIN_
  6
Continuous
 62
     7
100
AcDbPolyline
 90
        2
 70
     0
 43
0.5
 10
-461.921970554926
 20
193.532389580974
 10
-462.021970554926
 20
193.532389580974
  0
LWPOLYLINE
  5
3E9
330
1F
100
AcDbEntity
  8
Sichtbare_Kanten_TC_020513_DIN_
  6
Continuous
 62
     7
100
AcDbPolyline
 90
        2
 70
     0
 43
0.5
 10
-461.921970554926
 20
189.032389580974
 10
-462.021970554926
 20
189.032389580974
  0
LWPOLYLINE
  5
3EA
330
1F
100
AcDbEntity
  8
Sichtbare_Kanten_TC_020513_DIN_
  6
Continuous
 62
     7
100
AcDbPolyline
 90
        2
 70
     0
 43
0.5
 10
-468.671970554926
 20
193.532389580974
 10
-470.171970554926
 20
193.532389580974
  0
LWPOLYLINE
  5
3EB
330
1F
100
AcDbEntity
  8
Sichtbare_Kanten_TC_020513_DIN_
  6
Continuous
 62
     7
100
AcDbPolyline
 90
        2
 70
     0
 43
0.5
 10
-468.671970554926
 20
189.032389580974
 10
-470.171970554926
 20
189.032389580974
  0
LWPOLYLINE
  5
3EC
330
1F
100
AcDbEntity
  8
Sichtbare_Kanten_TC_020513_DIN_
  6
Continuous
 62
     7
100
AcDbPolyline
 90
        2
 70
     0
 43
0.5
 10
-468.671970554926
 20
195.032389580974
 10
-468.421970554926
 20
195.032389580974
  0
LWPOLYLINE
  5
3ED
330
1F
100
AcDbEntity
  8
Sichtbare_Kanten_TC_020513_DIN_
  6
Continuous
 62
     7
100
AcDbPolyline
 90
        2
 70
     0
 43
0.5
 10
-468.671970554926
 20
188.657389580974
 10
-468.421970554926
 20
188.657389580974
  0
LWPOLYLINE
  5
3EE
330
1F
100
AcDbEntity
  8
Sichtbare_Kanten_TC_020513_DIN_
  6
Continuous
 62
     7
100
AcDbPolyline
 90
        2
 70
     0
 43
0.5
 10
-462.021970554926
 20
195.282389580974
 10
-462.021970554926
 20
187.282389580974
  0
LWPOLYLINE
  5
3EF
330
1F
100
AcDbEntity
  8
Sichtbare_Kanten_TC_020513_DIN_
  6
Continuous
 62
     7
100
AcDbPolyline
 90
        2
 70
     0
 43
0.5
 10
-468.321970554926
 20
195.282389580974
 10
-468.321970554926
 20
187.282389580974
  0
LWPOLYLINE
  5
3F0
330
1F
100
AcDbEntity
  8
Sichtbare_Kanten_TC_020513_DIN_
  6
Continuous
 62
     7
100
AcDbPolyline
 90
        2
 70
     0
 43
0.5
 10
-461.921970554926
 20
195.282389580974
 10
-461.921970554926
 20
187.282389580974
  0
LWPOLYLINE
  5
3F1
330
1F
100
AcDbEntity
  8
Sichtbare_Kanten_TC_020513_DIN_
  6
Continuous
 62
     7
100
AcDbPolyline
 90
        2
 70
     0
 43
0.5
 10
-468.371970554926
 20
193.532389580974
 10
-468.371970554926
 20
189.032389580974
  0
LWPOLYLINE
  5
3F2
330
1F
100
AcDbEntity
  8
Sichtbare_Kanten_TC_020513_DIN_
  6
Continuous
 62
     7
100
AcDbPolyline
 90
        2
 70
     0
 43
0.5
 10
-470.171970554926
 20
190.882389580974
 10
-470.171970554926
 20
189.032389580974
  0
LWPOLYLINE
  5
3F3
330
1F
100
AcDbEntity
  8
Sichtbare_Kanten_TC_020513_DIN_
  6
Continuous
 62
     7
100
AcDbPolyline
 90
        2
 70
     0
 43
0.5
 10
-470.171970554926
 20
193.532389580974
 10
-470.171970554926
 20
191.682389580974
  0
LWPOLYLINE
  5
3F4
330
1F
100
AcDbEntity
  8
Sichtbare_Kanten_TC_020513_DIN_
  6
Continuous
 62
     7
100
AcDbPolyline
 90
        2
 70
     0
 43
0.5
 10
-470.171970554926
 20
191.682389580974
 10
-469.171970554926
 20
191.682389580974
  0
LWPOLYLINE
  5
3F5
330
1F
100
AcDbEntity
  8
Sichtbare_Kanten_TC_020513_DIN_
  6
Continuous
 62
     7
100
AcDbPolyline
 90
        2
 70
     0
 43
0.5
 10
-469.171970554926
 20
190.882389580974
 10
-469.171970554926
 20
191.682389580974
  0
LWPOLYLINE
  5
3F6
330
1F
100
AcDbEntity
  8
Sichtbare_Kanten_TC_020513_DIN_
  6
Continuous
 62
     7
100
AcDbPolyline
 90
        2
 70
     0
 43
0.5
 10
-469.171970554926
 20
190.882389580974
 10
-470.171970554926
 20
190.882389580974
  0
LWPOLYLINE
  5
3F7
330
1F
100
AcDbEntity
  8
Sichtbare_Kanten_TC_020513_DIN_
  6
Continuous
 62
     7
100
AcDbPolyline
 90
        2
 70
     0
 43
0.5
 10
-468.421970554926
 20
195.032389580974
 10
-468.421970554926
 20
188.882389580974
  0
LWPOLYLINE
  5
3F8
330
1F
100
AcDbEntity
  8
Sichtbare_Kanten_TC_020513_DIN_
  6
Continuous
 62
     7
100
AcDbPolyline
 90
        2
 70
     0
 43
0.5
 10
-468.671970554926
 20
195.032389580974
 10
-468.671970554926
 20
188.882389580974
  0
LWPOLYLINE
  5
3F9
330
1F
100
AcDbEntity
  8
Sichtbare_Kanten_TC_020513_DIN_
  6
Continuous
 62
     7
100
AcDbPolyline
 90
        2
 70
     0
 43
0.5
 10
-468.421970554926
 20
188.882389580974
 10
-468.421970554926
 20
188.657389580974
  0
LWPOLYLINE
  5
3FA
330
1F
100
AcDbEntity
  8
Sichtbare_Kanten_TC_020513_DIN_
  6
Continuous
 62
     7
100
AcDbPolyline
 90
        2
 70
     0
 43
0.5
 10
-468.671970554926
 20
188.882389580974
 10
-468.671970554926
 20
188.657389580974
  0
LWPOLYLINE
  5
3FB
330
1F
100
AcDbEntity
  8
Sichtbare_Kanten_TC_020513_DIN_
  6
Continuous
 62
     7
100
AcDbPolyline
 90
        2
 70
     0
 43
0.5
 10
-328.921970554926
 20
199.782389580974
 10
-334.421970554926
 20
199.782389580974
  0
LWPOLYLINE
  5
3FC
330
1F
100
AcDbEntity
  8
Sichtbare_Kanten_TC_020513_DIN_
  6
Continuous
 62
     7
100
AcDbPolyline
 90
        2
 70
     0
 43
0.5
 10
-328.921970554926
 20
186.782389580974
 10
-328.921970554926
 20
191.282389580974
  0
LWPOLYLINE
  5
3FD
330
1F
100
AcDbEntity
  8
Sichtbare_Kanten_TC_020513_DIN_
  6
Continuous
 62
     7
100
AcDbPolyline
 90
        2
 70
     0
 43
0.5
 10
-328.921970554926
 20
199.782389580974
 10
-328.921970554926
 20
191.282389580974
  0
LWPOLYLINE
  5
3FE
330
1F
100
AcDbEntity
  8
Sichtbare_Kanten_TC_020513_DIN_
  6
Continuous
 62
     7
100
AcDbPolyline
 90
        2
 70
     0
 43
0.5
 10
-334.755370289585
 20
199.648989846314
 10
-334.421970554926
 20
199.648989846314
  0
LWPOLYLINE
  5
3FF
330
1F
100
AcDbEntity
  8
Sichtbare_Kanten_TC_020513_DIN_
  6
Continuous
 62
     7
100
AcDbPolyline
 90
        2
 70
     0
 43
0.5
 10
-335.171970554926
 20
198.282389580974
 10
-335.171970554926
 20
199.282389580974
  0
LWPOLYLINE
  5
400
330
1F
100
AcDbEntity
  8
Sichtbare_Kanten_TC_020513_DIN_
  6
Continuous
 62
     7
100
AcDbPolyline
 90
        2
 70
     0
 43
0.5
 10
-335.171970554926
 20
195.282389580974
 10
-335.171970554926
 20
196.282389580974
  0
LWPOLYLINE
  5
401
330
1F
100
AcDbEntity
  8
Sichtbare_Kanten_TC_020513_DIN_
  6
Continuous
 62
     7
100
AcDbPolyline
 90
        2
 70
     0
 43
0.5
 10
-454.496044629
 20
195.282389580974
 10
-454.421970554926
 20
196.282389580974
  0
LWPOLYLINE
  5
402
330
1F
100
AcDbEntity
  8
Sichtbare_Kanten_TC_020513_DIN_
  6
Continuous
 62
     7
100
AcDbPolyline
 90
        2
 70
     0
 43
0.5
 10
-419.921970554926
 20
300.282389580974
 10
-419.921970554926
 20
280.782389580974
  0
LWPOLYLINE
  5
403
330
1F
100
AcDbEntity
  8
Sichtbare_Kanten_TC_020513_DIN_
  6
Continuous
 62
     7
100
AcDbPolyline
 90
        2
 70
     0
 43
0.5
 10
-369.921970554926
 20
300.282389580974
 10
-369.921970554926
 20
280.782389580974
  0
LWPOLYLINE
  5
404
330
1F
100
AcDbEntity
  8
Sichtbare_Kanten_TC_020513_DIN_
  6
Continuous
 62
     7
100
AcDbPolyline
 90
        2
 70
     0
 43
0.5
 10
-419.921970554926
 20
300.282389580974
 10
-369.921970554926
 20
300.282389580974
  0
LWPOLYLINE
  5
405
330
1F
100
AcDbEntity
  8
Sichtbare_Kanten_TC_020513_DIN_
  6
Continuous
 62
     7
100
AcDbPolyline
 90
        2
 70
     0
 43
0.5
 10
-342.401763764566
 20
220.050338773405
 10
-447.442177345286
 20
220.050338773405
  0
LWPOLYLINE
  5
406
330
1F
100
AcDbEntity
  8
Sichtbare_Kanten_TC_020513_DIN_
  6
Continuous
 62
     7
100
AcDbPolyline
 90
        2
 70
     0
 43
0.5
 10
-439.1177643735
 20
265.514440388543
 10
-350.726176736352
 20
265.514440388543
  0
LWPOLYLINE
  5
407
330
1F
100
AcDbEntity
  8
Sichtbare_Kanten_TC_020513_DIN_
  6
Continuous
 62
     7
100
AcDbPolyline
 90
        2
 70
     0
 43
0.5
 10
-347.037279110175
 20
263.782389580974
 10
-442.806661999676
 20
263.782389580974
  0
LWPOLYLINE
  5
408
330
1F
100
AcDbEntity
  8
Sichtbare_Kanten_TC_020513_DIN_
  6
Continuous
 62
     7
100
AcDbPolyline
 90
        2
 70
     0
 43
0.5
 10
-339.347138265105
 20
221.782389580974
 10
-450.496802844746
 20
221.782389580974
  0
LWPOLYLINE
  5
409
330
1F
100
AcDbEntity
  8
Sichtbare_Kanten_TC_020513_DIN_
  6
Continuous
 62
     7
100
AcDbPolyline
 90
        2
 70
     0
 43
0.5
 10
-442.87233570544
 20
278.322702989705
 10
-455.323855481064
 20
210.318248830524
  0
LWPOLYLINE
  5
40A
330
1F
100
AcDbEntity
  8
Sichtbare_Kanten_TC_020513_DIN_
  6
Continuous
 62
     7
100
AcDbPolyline
 90
        2
 70
     0
 43
0.5
 10
-334.520085628787
 20
210.318248830524
 10
-346.971605404412
 20
278.322702989705
  0
LWPOLYLINE
  5
40B
330
1F
100
AcDbEntity
  8
Sichtbare_Kanten_TC_020513_DIN_
  6
Continuous
 62
     7
100
AcDbPolyline
 90
        2
 70
     0
 43
0.5
 10
-334.421970554926
 20
173.782389580974
 10
-334.421970554926
 20
182.782389580974
  0
LWPOLYLINE
  5
40C
330
1F
100
AcDbEntity
  8
Sichtbare_Kanten_TC_020513_DIN_
  6
Continuous
 62
     7
100
AcDbPolyline
 90
        2
 70
     0
 43
0.5
 10
-334.421970554926
 20
191.782389580974
 10
-334.421970554926
 20
194.582389580974
  0
LWPOLYLINE
  5
40D
330
1F
100
AcDbEntity
  8
Sichtbare_Kanten_TC_020513_DIN_
  6
Continuous
 62
     7
100
AcDbPolyline
 90
        2
 70
     0
 43
0.5
 10
-334.421970554926
 20
199.982389580974
 10
-334.421970554926
 20
200.582389580974
  0
LWPOLYLINE
  5
40E
330
1F
100
AcDbEntity
  8
Sichtbare_Kanten_TC_020513_DIN_
  6
Continuous
 62
     7
100
AcDbPolyline
 90
        2
 70
     0
 43
0.5
 10
-334.421970554926
 20
202.982389580974
 10
-334.421970554926
 20
203.582389580974
  0
LWPOLYLINE
  5
40F
330
1F
100
AcDbEntity
  8
Sichtbare_Kanten_TC_020513_DIN_
  6
Continuous
 62
     7
100
AcDbPolyline
 90
        2
 70
     0
 43
0.5
 10
-334.421970554926
 20
205.982389580973
 10
-334.421970554926
 20
206.582389580974
  0
LWPOLYLINE
  5
410
330
1F
100
AcDbEntity
  8
Sichtbare_Kanten_TC_020513_DIN_
  6
Continuous
 62
     7
100
AcDbPolyline
 90
        2
 70
     0
 43
0.5
 10
-334.421970554926
 20
196.982389580974
 10
-334.421970554926
 20
197.582389580974
  0
LWPOLYLINE
  5
411
330
1F
100
AcDbEntity
  8
Sichtbare_Kanten_TC_020513_DIN_
  6
Continuous
 62
     7
100
AcDbPolyline
 90
        2
 70
     0
 43
0.5
 10
-455.421970554926
 20
197.582389580974
 10
-455.421970554926
 20
196.982389580974
  0
LWPOLYLINE
  5
412
330
1F
100
AcDbEntity
  8
Sichtbare_Kanten_TC_020513_DIN_
  6
Continuous
 62
     7
100
AcDbPolyline
 90
        2
 70
     0
 43
0.5
 10
-449.421970554926
 20
173.782389580974
 10
-455.421970554926
 20
173.782389580974
  0
LWPOLYLINE
  5
413
330
1F
100
AcDbEntity
  8
Sichtbare_Kanten_TC_020513_DIN_
  6
Continuous
 62
     7
100
AcDbPolyline
 90
        2
 70
     0
 43
0.5
 10
-334.421970554926
 20
173.782389580974
 10
-340.421970554926
 20
173.782389580974
  0
LWPOLYLINE
  5
414
330
1F
100
AcDbEntity
  8
Sichtbare_Kanten_TC_020513_DIN_
  6
Continuous
 62
     7
100
AcDbPolyline
 90
        2
 70
     0
 43
0.5
 10
-455.421970554926
 20
182.782389580974
 10
-455.421970554926
 20
173.782389580974
  0
LWPOLYLINE
  5
415
330
1F
100
AcDbEntity
  8
Sichtbare_Kanten_TC_020513_DIN_
  6
Continuous
 62
     7
100
AcDbPolyline
 90
        2
 70
     0
 43
0.5
 10
-455.421970554926
 20
206.582389580974
 10
-455.421970554926
 20
205.982389580973
  0
LWPOLYLINE
  5
416
330
1F
100
AcDbEntity
  8
Sichtbare_Kanten_TC_020513_DIN_
  6
Continuous
 62
     7
100
AcDbPolyline
 90
        2
 70
     0
 43
0.5
 10
-455.421970554926
 20
203.582389580974
 10
-455.421970554926
 20
202.982389580974
  0
LWPOLYLINE
  5
417
330
1F
100
AcDbEntity
  8
Sichtbare_Kanten_TC_020513_DIN_
  6
Continuous
 62
     7
100
AcDbPolyline
 90
        2
 70
     0
 43
0.5
 10
-455.421970554926
 20
200.582389580974
 10
-455.421970554926
 20
199.982389580974
  0
LWPOLYLINE
  5
418
330
1F
100
AcDbEntity
  8
Sichtbare_Kanten_TC_020513_DIN_
  6
Continuous
 62
     7
100
AcDbPolyline
 90
        2
 70
     0
 43
0.5
 10
-455.421970554926
 20
194.582389580974
 10
-455.421970554926
 20
191.782389580974
  0
LWPOLYLINE
  5
419
330
1F
100
AcDbEntity
  8
Sichtbare_Kanten_TC_020513_DIN_
  6
Continuous
 62
     7
100
AcDbPolyline
 90
        2
 70
     0
 43
0.5
 10
-347.037279110175
 20
263.782389580974
 10
-339.347138265105
 20
221.782389580974
  0
LWPOLYLINE
  5
41A
330
1F
100
AcDbEntity
  8
Sichtbare_Kanten_TC_020513_DIN_
  6
Continuous
 62
     7
100
AcDbPolyline
 90
        2
 70
     0
 43
0.5
 10
-450.496802844746
 20
221.782389580974
 10
-442.806661999676
 20
263.782389580974
  0
LWPOLYLINE
  5
41B
330
1F
100
AcDbEntity
  8
Sichtbare_Kanten_TC_020513_DIN_
  6
Continuous
 62
     7
100
AcDbPolyline
 90
        2
 70
     0
 43
0.5
 10
-394.921970554926
 20
246.132389580974
 10
-396.046970554926
 20
247.68596939466
  0
LWPOLYLINE
  5
41C
330
1F
100
AcDbEntity
  8
Sichtbare_Kanten_TC_020513_DIN_
  6
Continuous
 62
     7
100
AcDbPolyline
 90
        2
 70
     0
 43
0.5
 10
-396.046970554926
 20
247.68596939466
 10
-396.046970554926
 20
243.69561053461
  0
LWPOLYLINE
  5
41D
330
1F
100
AcDbEntity
  8
Sichtbare_Kanten_TC_020513_DIN_
  6
Continuous
 62
     7
100
AcDbPolyline
 90
        2
 70
     0
 43
0.5
 10
-396.796970554926
 20
243.69561053461
 10
-396.796970554926
 20
248.843207088875
  0
LWPOLYLINE
  5
41E
330
1F
100
AcDbEntity
  8
Sichtbare_Kanten_TC_020513_DIN_
  6
Continuous
 62
     7
100
AcDbPolyline
 90
        2
 70
     0
 43
0.5
 10
-396.118241695435
 20
249.063147489694
 10
-394.921970554926
 20
247.411145093614
  0
LWPOLYLINE
  5
41F
330
1F
100
AcDbEntity
  8
Sichtbare_Kanten_TC_020513_DIN_
  6
Continuous
 62
     7
100
AcDbPolyline
 90
        2
 70
     0
 43
0.5
 10
-394.921970554926
 20
247.411145093614
 10
-393.725699414416
 20
249.063147489694
  0
LWPOLYLINE
  5
420
330
1F
100
AcDbEntity
  8
Sichtbare_Kanten_TC_020513_DIN_
  6
Continuous
 62
     7
100
AcDbPolyline
 90
        2
 70
     0
 43
0.5
 10
-393.046970554926
 20
248.843207088875
 10
-393.046970554926
 20
241.921572073072
  0
LWPOLYLINE
  5
421
330
1F
100
AcDbEntity
  8
Sichtbare_Kanten_TC_020513_DIN_
  6
Continuous
 62
     7
100
AcDbPolyline
 90
        2
 70
     0
 43
0.5
 10
-393.796970554926
 20
241.921572073072
 10
-393.796970554926
 20
247.68596939466
  0
LWPOLYLINE
  5
422
330
1F
100
AcDbEntity
  8
Sichtbare_Kanten_TC_020513_DIN_
  6
Continuous
 62
     7
100
AcDbPolyline
 90
        2
 70
     0
 43
0.5
 10
-393.796970554926
 20
247.68596939466
 10
-394.921970554926
 20
246.132389580974
  0
LWPOLYLINE
  5
423
330
1F
100
AcDbEntity
  8
Sichtbare_Kanten_TC_020513_DIN_
  6
Continuous
 62
     7
100
AcDbPolyline
 90
        2
 70
     0
 43
0.5
 10
-397.621970554926
 20
247.934553242721
 10
-397.621970554926
 20
243.046812390951
  0
LWPOLYLINE
  5
424
330
1F
100
AcDbEntity
  8
Sichtbare_Kanten_TC_020513_DIN_
  6
Continuous
 62
     7
100
AcDbPolyline
 90
        2
 70
     0
 43
0.5
 10
-397.621970554926
 20
243.046812390951
 10
-394.734574634867
 20
241.381007052456
  0
LWPOLYLINE
  5
425
330
1F
100
AcDbEntity
  8
Sichtbare_Kanten_TC_020513_DIN_
  6
Continuous
 62
     7
100
AcDbPolyline
 90
        2
 70
     0
 43
0.5
 10
-395.109366474984
 20
240.731367862919
 10
-398.184366474984
 20
242.505406324458
  0
LWPOLYLINE
  5
426
330
1F
100
AcDbEntity
  8
Sichtbare_Kanten_TC_020513_DIN_
  6
Continuous
 62
     7
100
AcDbPolyline
 90
        2
 70
     0
 43
0.5
 10
-398.371970554926
 20
242.830225919226
 10
-398.371970554926
 20
247.934553242721
  0
LWPOLYLINE
  5
427
330
1F
100
AcDbEntity
  8
Sichtbare_Kanten_TC_020513_DIN_
  6
Continuous
 62
     7
100
AcDbPolyline
 90
        2
 70
     0
 43
0.5
 10
-404.671970554926
 20
245.382389580974
 10
-394.921970554926
 20
251.007389580974
  0
LWPOLYLINE
  5
428
330
1F
100
AcDbEntity
  8
Sichtbare_Kanten_TC_020513_DIN_
  6
Continuous
 62
     7
100
AcDbPolyline
 90
        2
 70
     0
 43
0.5
 10
-394.921970554926
 20
251.007389580974
 10
-385.171970554926
 20
245.382389580974
  0
LWPOLYLINE
  5
429
330
1F
100
AcDbEntity
  8
Sichtbare_Kanten_TC_020513_DIN_
  6
Continuous
 62
     7
100
AcDbPolyline
 90
        2
 70
     0
 43
0.5
 10
-385.171970554926
 20
245.382389580974
 10
-394.921970554926
 20
239.757389580974
  0
LWPOLYLINE
  5
42A
330
1F
100
AcDbEntity
  8
Sichtbare_Kanten_TC_020513_DIN_
  6
Continuous
 62
     7
100
AcDbPolyline
 90
        2
 70
     0
 43
0.5
 10
-394.921970554926
 20
239.757389580974
 10
-404.671970554926
 20
245.382389580974
  0
LWPOLYLINE
  5
42B
330
1F
100
AcDbEntity
  8
Sichtbare_Kanten_TC_020513_DIN_
  6
Continuous
 62
     7
100
AcDbPolyline
 90
        2
 70
     0
 43
0.5
 10
-394.921970554926
 20
250.574456955402
 10
-403.921554003936
 20
245.382389580974
  0
LWPOLYLINE
  5
42C
330
1F
100
AcDbEntity
  8
Sichtbare_Kanten_TC_020513_DIN_
  6
Continuous
 62
     7
100
AcDbPolyline
 90
        2
 70
     0
 43
0.5
 10
-385.922387105916
 20
245.382389580974
 10
-394.921970554926
 20
250.574456955402
  0
LWPOLYLINE
  5
42D
330
1F
100
AcDbEntity
  8
Sichtbare_Kanten_TC_020513_DIN_
  6
Continuous
 62
     7
100
AcDbPolyline
 90
        2
 70
     0
 43
0.5
 10
-394.921970554926
 20
240.190322206545
 10
-385.922387105916
 20
245.382389580974
  0
LWPOLYLINE
  5
42E
330
1F
100
AcDbEntity
  8
Sichtbare_Kanten_TC_020513_DIN_
  6
Continuous
 62
     7
100
AcDbPolyline
 90
        2
 70
     0
 43
0.5
 10
-403.921554003936
 20
245.382389580974
 10
-394.921970554926
 20
240.190322206545
  0
LWPOLYLINE
  5
42F
330
1F
100
AcDbEntity
  8
Sichtbare_Kanten_TC_020513_DIN_
  6
Continuous
 62
     7
100
AcDbPolyline
 90
        2
 70
     0
 43
0.5
 10
-399.121970554926
 20
247.069168627337
 10
-399.121970554926
 20
243.69561053461
  0
LWPOLYLINE
  5
430
330
1F
100
AcDbEntity
  8
Sichtbare_Kanten_TC_020513_DIN_
  6
Continuous
 62
     7
100
AcDbPolyline
 90
        2
 70
     0
 43
0.5
 10
-399.871970554926
 20
243.69561053461
 10
-399.871970554926
 20
247.069168627337
  0
LWPOLYLINE
  5
431
330
1F
100
AcDbEntity
  8
Sichtbare_Kanten_TC_020513_DIN_
  6
Continuous
 62
     7
100
AcDbPolyline
 90
        2
 70
     0
 43
0.5
 10
-391.734574634867
 20
248.302642068259
 10
-390.234574634867
 20
247.437257452874
  0
LWPOLYLINE
  5
432
330
1F
100
AcDbEntity
  8
Sichtbare_Kanten_TC_020513_DIN_
  6
Continuous
 62
     7
100
AcDbPolyline
 90
        2
 70
     0
 43
0.5
 10
-390.609366474984
 20
246.787618263338
 10
-391.546970554926
 20
247.328543694073
  0
LWPOLYLINE
  5
433
330
1F
100
AcDbEntity
  8
Sichtbare_Kanten_TC_020513_DIN_
  6
Continuous
 62
     7
100
AcDbPolyline
 90
        2
 70
     0
 43
0.5
 10
-391.546970554926
 20
247.328543694073
 10
-391.546970554926
 20
245.757389580974
  0
LWPOLYLINE
  5
434
330
1F
100
AcDbEntity
  8
Sichtbare_Kanten_TC_020513_DIN_
  6
Continuous
 62
     7
100
AcDbPolyline
 90
        2
 70
     0
 43
0.5
 10
-391.546970554926
 20
245.757389580974
 10
-390.421970554926
 20
245.757389580974
  0
LWPOLYLINE
  5
435
330
1F
100
AcDbEntity
  8
Sichtbare_Kanten_TC_020513_DIN_
  6
Continuous
 62
     7
100
AcDbPolyline
 90
        2
 70
     0
 43
0.5
 10
-390.421970554926
 20
245.007389580974
 10
-391.546970554926
 20
245.007389580974
  0
LWPOLYLINE
  5
436
330
1F
100
AcDbEntity
  8
Sichtbare_Kanten_TC_020513_DIN_
  6
Continuous
 62
     7
100
AcDbPolyline
 90
        2
 70
     0
 43
0.5
 10
-391.546970554926
 20
245.007389580974
 10
-391.546970554926
 20
243.436235467874
  0
LWPOLYLINE
  5
437
330
1F
100
AcDbEntity
  8
Sichtbare_Kanten_TC_020513_DIN_
  6
Continuous
 62
     7
100
AcDbPolyline
 90
        2
 70
     0
 43
0.5
 10
-391.546970554926
 20
243.436235467874
 10
-390.609366474984
 20
243.977160898609
  0
LWPOLYLINE
  5
438
330
1F
100
AcDbEntity
  8
Sichtbare_Kanten_TC_020513_DIN_
  6
Continuous
 62
     7
100
AcDbPolyline
 90
        2
 70
     0
 43
0.5
 10
-390.234574634867
 20
243.327521709073
 10
-391.734574634867
 20
242.462137093688
  0
LWPOLYLINE
  5
439
330
1F
100
AcDbEntity
  8
Sichtbare_Kanten_TC_020513_DIN_
  6
Continuous
 62
     7
100
AcDbPolyline
 90
        2
 70
     0
 43
0.5
 10
-392.296970554926
 20
242.786956688457
 10
-392.296970554926
 20
247.977822473491
  0
MTEXT
  5
45D
330
1F
100
AcDbEntity
  8
1
 62
     7
100
AcDbMText
 10
-80.6473986225146
 20
20.1212788415121
 30
0.0
 40
9.0
 41
0.0
 71
     5
 72
     1
  1
1:2
  7
CONVERTER_11
 73
     1
 44
0.75727272727273
  0
MTEXT
  5
45E
330
1F
100
AcDbEntity
  8
1
 62
     7
100
AcDbMText
 10
-80.6473986225146
 20
32.521278841512
 30
0.0
 40
6.0
 41
0.0
 71
     5
 72
     1
  1
Scale
  7
CONVERTER_11
 73
     1
 44
0.75727272727273
  0
MTEXT
  5
45F
330
1F
100
AcDbEntity
  8
1
 62
     7
100
AcDbMText
 10
-305.447398622515
 20
25.0
 30
0.0
 40
9.0
 41
0.0
 71
     4
 72
     1
  1
CHVT 48.7 L\Phood top entry NPT 1"1/4
  7
CONVERTER_11
 73
     1
 44
0.75727272727273
  0
MTEXT
  5
460
330
1F
100
AcDbEntity
  8
1
 62
     7
100
AcDbMText
 10
-291.000000000001
 20
388.0
 30
0.0
 40
8.0
 41
0.0
 71
     5
 72
     1
  1
Diritti riservati      All rights reserved
  7
CONVERTER_11
 73
     1
 44
0.75727272727273
  0
MTEXT
  5
462
330
1F
100
AcDbEntity
  8
1
 62
     7
100
AcDbMText
 10
-348.0
 20
34.9999999999999
 30
0.0
 40
5.0
 41
0.0
 71
     5
 72
     1
  1
dimensions in mm
  7
CONVERTER_12
 73
     1
 44
0.75727272727273
  0
MTEXT
  5
463
330
1F
100
AcDbEntity
  8
1
 62
     7
100
AcDbMText
 10
-376.0
 20
24.9999999999997
 30
0.0
 40
6.0
 41
0.0
 71
     4
 72
     1
  1
Date
  7
CONVERTER_11
 73
     1
 44
0.75727272727273
  0
MTEXT
  5
464
330
1F
100
AcDbEntity
  8
1
 62
     7
100
AcDbMText
 10
-354.8
 20
24.9999999999997
 30
0.0
 40
6.0
 41
0.0
 71
     4
 72
     1
  1
14/12/06
  7
CONVERTER_11
 73
     1
 44
0.75727272727273
  0
MTEXT
  5
465
330
1F
100
AcDbEntity
  8
1
 62
     7
100
AcDbMText
 10
-376.0
 20
14.9999999999997
 30
0.0
 40
6.0
 41
0.0
 71
     4
 72
     1
  1
Sign.
  7
CONVERTER_11
 73
     1
 44
0.75727272727273
  0
DIMENSION
  5
471
330
1F
100
AcDbEntity
  8
1
100
AcDbDimension
  2
*D1
 10
-334.421970554926
 20
153.782389580974
 30
0.0
 11
-394.921970554926
 21
160.782389580974
 31
0.0
 70
    32
  1
121
 71
     5
 42
-1.0
 53
0.00013888888889
  3
ME10_DIM_10
100
AcDbAlignedDimension
 13
-455.421970554926
 23
173.782389580974
 33
0.0
 14
-334.421970554926
 24
173.782389580974
 34
0.0
100
AcDbRotatedDimension
  0
DIMENSION
  5
47C
330
1F
100
AcDbEntity
  8
1
100
AcDbDimension
  2
*D2
 10
-177.67196871067
 20
153.782389580974
 30
0.0
 11
-217.17196871067
 21
160.782389580974
 31
0.0
 70
    32
  1
79
 71
     5
 42
-1.0
 53
0.00013888888889
  3
ME10_DIM_11
100
AcDbAlignedDimension
 13
-256.67196871067
 23
173.782389580974
 33
0.0
 14
-177.67196871067
 24
173.782389580974
 34
0.0
100
AcDbRotatedDimension
  0
DIMENSION
  5
487
330
1F
100
AcDbEntity
  8
1
100
AcDbDimension
  2
*D3
 10
-172.17196871067
 20
133.782389580974
 30
0.0
 11
-217.17196871067
 21
140.782389580974
 31
0.0
 70
    32
  1
90
 71
     5
 42
-1.0
 53
0.00013888888889
  3
ME10_DIM_12
100
AcDbAlignedDimension
 13
-262.17196871067
 23
182.782389580974
 33
0.0
 14
-172.17196871067
 24
182.782389580974
 34
0.0
100
AcDbRotatedDimension
  0
DIMENSION
  5
492
330
1F
100
AcDbEntity
  8
1
100
AcDbDimension
  2
*D4
 10
-147.67196871067
 20
280.7823895809741
 30
0.0
 11
-154.67196871067
 21
227.736518021341
 31
0.0
 70
    32
  1
98
 71
     5
 42
-1.0
 53
90.0
  3
ME10_DIM_13
100
AcDbAlignedDimension
 13
-172.17196871067
 23
182.782389580974
 33
0.0
 14
-180.671968710667
 24
280.782389580974
 34
0.0
 50
90.0
100
AcDbRotatedDimension
  0
DIMENSION
  5
49D
330
1F
100
AcDbEntity
  8
1
100
AcDbDimension
  2
*D5
 10
-127.67196871067
 20
182.7823895809738
 30
0.0
 11
-134.97196871067
 21
237.496130038989
 31
0.0
 70
    32
  1
117,5
 71
     5
 42
-1.0
 53
90.0
  3
ME10_DIM_14
100
AcDbAlignedDimension
 13
-192.171968710654
 23
300.282389580974
 33
0.0
 14
-172.17196871067
 24
182.782389580974
 34
0.0
 50
90.0
100
AcDbRotatedDimension
  0
DIMENSION
  5
4A8
330
1F
100
AcDbEntity
  8
1
100
AcDbDimension
  2
*D6
 10
-369.921970554926
 20
322.7824122411449
 30
0.0
 11
-394.921970554926
 21
329.782389580974
 31
0.0
 70
    32
  1
NPT 1"1/4 
 71
     5
 42
-1.0
 53
0.00013888888889
  3
ME10_DIM_15
100
AcDbAlignedDimension
 13
-419.921970554926
 23
300.282389580974
 33
0.0
 14
-369.921970554926
 24
300.282389580974
 34
0.0
100
AcDbRotatedDimension
  0
DIMENSION
  5
4B3
330
1F
100
AcDbEntity
  8
1
100
AcDbDimension
  2
*D7
 10
-319.671970554926
 20
133.782389580974
 30
0.0
 11
-394.921970554926
 21
141.082389580974
 31
0.0
 70
    32
  1
150,5
 71
     5
 42
-1.0
 53
0.00013888888889
  3
ME10_DIM_16
100
AcDbAlignedDimension
 13
-470.171970554926
 23
189.032389580974
 33
0.0
 14
-319.671970554926
 24
189.032389580974
 34
0.0
100
AcDbRotatedDimension
  0
DIMENSION
  5
4BE
330
1F
100
AcDbEntity
  8
1
100
AcDbDimension
  2
*D8
 10
-127.731496816174
 20
182.782389580974
 30
0.0
 11
-134.731496816174
 21
178.282389580974
 31
0.0
 70
    32
  1
9
 71
     5
 42
-1.0
 53
90.0
  3
ME10_DIM_17
100
AcDbAlignedDimension
 13
-177.67196871067
 23
173.782389580974
 33
0.0
 14
-172.17196871067
 24
182.782389580974
 34
0.0
 50
90.0
100
AcDbRotatedDimension
  0
HATCH
  5
4BF
330
1F
100
AcDbEntity
  8
1
  6
Continuous
 62
     7
100
AcDbHatch
 10
0.0
 20
0.0
 30
0.0
210
0.0
220
0.0
230
1.0
  2
SOLID
 70
     1
 71
     1
 91
        1
 92
        1
 93
       14
 72
     1
 10
-28.9805469248411
 20
27.7290817245075
 11
-30.6473986225146
 21
28.6907269347039
 72
     1
 10
-30.6473986225146
 20
28.6907269347039
 11
-30.6473986225146
 21
25.6666666666665
 72
     1
 10
-30.6473986225146
 20
25.6666666666665
 11
-28.6473986225146
 21
25.6666666666665
 72
     2
 10
-28.6473986225146
 20
25.0
 40
0.6666666666666998
 50
270.0
 51
450.0
 73
     0
 72
     1
 10
-28.6473986225146
 20
24.3333333333333
 11
-30.6473986225146
 21
24.3333333333333
 72
     1
 10
-30.6473986225146
 20
24.3333333333333
 11
-30.6473986225146
 21
21.3092730652959
 72
     1
 10
-30.6473986225146
 20
21.3092730652959
 11
-28.9805469248411
 21
22.2709182754925
 72
     2
 10
-28.6473986225146
 20
21.6934612181265
 40
0.6666666666666339
 50
240.0183606311536
 51
420.0183606311673
 73
     0
 72
     1
 10
-28.3142503201884
 20
21.1160041607607
 11
-30.9809169868549
 21
19.5775426222995
 72
     2
 10
-31.3140652891814
 20
20.1549996796653
 40
0.6666666666665009
 50
60.0183606311449
 51
180.0
 73
     0
 72
     1
 10
-31.9807319558479
 20
20.1549996796653
 11
-31.9807319558479
 21
29.8450003203347
 72
     2
 10
-31.3140652891814
 20
29.8450003203347
 40
0.6666666666667799
 50
180.0
 51
299.9816393688551
 73
     0
 72
     1
 10
-30.9809169868549
 20
30.4224573777005
 11
-28.3142503201884
 21
28.8839958392389
 72
     2
 10
-28.6473986225146
 20
28.3065387818733
 40
0.666666666666783
 50
299.9816393688414
 51
479.9816393688549
 73
     0
 97
       14
330
216
330
264
330
22D
330
263
330
20F
330
269
330
210
330
211
330
212
330
26A
330
213
330
214
330
215
330
26B
 75
     0
 76
     1
 98
        1
 10
0.0
 20
0.0
  0
HATCH
  5
4C0
330
1F
100
AcDbEntity
  8
1
  6
Continuous
 62
     7
100
AcDbHatch
 10
0.0
 20
0.0
 30
0.0
210
0.0
220
0.0
230
1.0
  2
SOLID
 70
     1
 71
     1
 91
        1
 92
        1
 93
        5
 72
     1
 10
-43.9807319558481
 20
28.3065387818733
 11
-43.9807319558481
 21
22.0785038345266
 72
     1
 10
-43.9807319558481
 20
22.0785038345266
 11
-43.9807319558481
 21
21.6934612181265
 72
     2
 10
-44.6473986225146
 20
21.6934612181265
 40
0.6666666666667993
 50
0.0
 51
180.0
 73
     0
 72
     1
 10
-45.3140652891814
 20
21.6934612181265
 11
-45.3140652891814
 21
28.3065387818733
 72
     2
 10
-44.6473986225146
 20
28.3065387818733
 40
0.6666666666665009
 50
180.0
 51
360.0
 73
     0
 97
        5
330
219
330
218
330
26C
330
217
330
26D
 75
     0
 76
     1
 98
        1
 10
0.0
 20
0.0
  0
HATCH
  5
4C1
330
1F
100
AcDbEntity
  8
1
  6
Continuous
 62
     7
100
AcDbHatch
 10
0.0
 20
0.0
 30
0.0
210
0.0
220
0.0
230
1.0
  2
SOLID
 70
     1
 71
     1
 91
        1
 92
        1
 93
        7
 72
     1
 10
-41.3140652891814
 20
29.8450003203347
 11
-41.3140652891814
 21
20.5400422960654
 72
     1
 10
-41.3140652891814
 20
20.5400422960654
 11
-36.980916986855
 21
18.0401490447232
 72
     2
 10
-37.3140652891814
 20
17.4626919873574
 40
0.6666666666667301
 50
299.9816393688475
 51
479.9816393688477
 73
     0
 72
     1
 10
-37.6472135915078
 20
16.8852349299916
 11
-41.980361893834
 21
19.3851281813338
 72
     2
 10
-41.3140652891814
 20
20.5400422960654
 40
1.333333333333201
 50
119.9816393688402
 51
179.9999999999913
 73
     0
 72
     1
 10
-42.6473986225146
 20
20.5400422960652
 11
-42.6473986225146
 21
29.8450003203347
 72
     2
 10
-41.9807319558481
 20
29.8450003203347
 40
0.6666666666666998
 50
180.0
 51
360.0
 73
     0
 97
        7
330
21C
330
21B
330
26E
330
21A
330
267
330
21D
330
26F
 75
     0
 76
     1
 98
        1
 10
0.0
 20
0.0
  0
HATCH
  5
4C2
330
1F
100
AcDbEntity
  8
1
  6
Continuous
 62
     7
100
AcDbHatch
 10
0.0
 20
0.0
 30
0.0
210
0.0
220
0.0
230
1.0
  2
SOLID
 70
     1
 71
     1
 91
        1
 92
        1
 93
       16
 72
     2
 10
-39.4507995308975
 20
31.4624346240691
 40
0.5299324249506872
 50
30.00000000001949
 51
180.0
 73
     1
 72
     1
 10
-39.9807319558481
 20
31.4624346240691
 11
-39.9807319558481
 21
25.0
 72
     1
 10
-39.9807319558481
 20
25.0
 11
-39.9807319558481
 21
21.6951701452658
 72
     2
 10
-39.3140652891814
 20
21.6951701452658
 40
0.6666666666666998
 50
180.0
 51
360.0
 73
     1
 72
     1
 10
-38.6473986225146
 20
21.6951701452658
 11
-38.6473986225146
 21
25.0
 72
     1
 10
-38.6473986225146
 20
25.0
 11
-38.6473986225146
 21
28.4641016151377
 72
     1
 10
-38.6473986225146
 20
28.4641016151377
 11
-36.9360737571096
 21
25.5
 72
     2
 10
-36.6473986225146
 20
25.6666666666665
 40
0.3333333333334091
 50
209.9999999999596
 51
330.0000000000148
 73
     1
 72
     1
 10
-36.3587234879199
 20
25.5
 11
-34.6473986225146
 21
28.4641016151377
 72
     1
 10
-34.6473986225146
 20
28.4641016151377
 11
-34.6473986225146
 21
25.0
 72
     1
 10
-34.6473986225146
 20
25.0
 11
-34.6473986225146
 21
18.6165381412036
 72
     2
 10
-33.9807319558479
 20
18.6165381412036
 40
0.6666666666666998
 50
180.0
 51
360.0
 73
     1
 72
     1
 10
-33.3140652891814
 20
18.6165381412036
 11
-33.3140652891814
 21
31.4624346240691
 72
     2
 10
-33.843997714132
 20
31.4624346240691
 40
0.5299324249506014
 50
0.0
 51
149.9999999999698
 73
     1
 72
     1
 10
-34.3029326564281
 20
31.7274008365446
 11
-36.6473986225146
 21
27.6666666666665
 72
     1
 10
-36.6473986225146
 20
27.6666666666665
 11
-38.9918645886012
 21
31.7274008365446
 97
       16
330
21E
330
270
330
21F
330
271
330
220
330
22C
330
22B
330
268
330
22A
330
229
330
221
330
272
330
222
330
224
330
273
330
223
 75
     0
 76
     1
 98
        1
 10
0.0
 20
0.0
  0
ENDSEC
  0
SECTION
  2
OBJECTS
  0
DICTIONARY
  5
C
330
0
100
AcDbDictionary
281
     1
  3
ACAD_GROUP
350
D
  3
ACAD_LAYOUT
350
1A
  3
ACAD_MATERIAL
350
3B
  3
ACAD_MLEADERSTYLE
350
4C5
  3
ACAD_MLINESTYLE
350
17
  3
ACAD_PLOTSETTINGS
350
19
  3
ACAD_PLOTSTYLENAME
350
E
  3
ACAD_SCALELIST
350
43B
  3
ACAD_VISUALSTYLE
350
2A
  3
AcDbVariableDictionary
350
4C3
  0
DICTIONARY
  5
D
102
{ACAD_REACTORS
330
C
102
}
330
C
100
AcDbDictionary
281
     1
  0
DICTIONARY
  5
1A
102
{ACAD_REACTORS
330
C
102
}
330
C
100
AcDbDictionary
281
     1
  3
Layout1
350
1E
  3
Layout2
350
26
  3
Model
350
22
  0
DICTIONARY
  5
3B
102
{ACAD_REACTORS
330
C
102
}
330
C
100
AcDbDictionary
281
     1
  3
ByBlock
350
3D
  3
ByLayer
350
3C
  3
Global
350
3E
  0
DICTIONARY
  5
4C5
102
{ACAD_REACTORS
330
C
102
}
330
C
100
AcDbDictionary
281
     1
  0
DICTIONARY
  5
17
102
{ACAD_REACTORS
330
C
102
}
330
C
100
AcDbDictionary
281
     1
  3
Standard
350
18
  0
DICTIONARY
  5
19
102
{ACAD_REACTORS
330
C
102
}
330
C
100
AcDbDictionary
281
     1
  0
ACDBDICTIONARYWDFLT
  5
E
102
{ACAD_REACTORS
330
C
102
}
330
C
100
AcDbDictionary
281
     1
  3
Normal
350
F
100
AcDbDictionaryWithDefault
340
F
  0
DICTIONARY
  5
43B
102
{ACAD_REACTORS
330
C
102
}
330
C
100
AcDbDictionary
281
     1
  3
A0
350
43C
  3
A1
350
43D
  3
A2
350
43E
  3
A3
350
43F
  3
A4
350
440
  3
A5
350
441
  3
A6
350
442
  3
A7
350
443
  3
A8
350
444
  3
A9
350
445
  3
B0
350
446
  3
B1
350
447
  3
B2
350
448
  3
B3
350
449
  3
B4
350
44A
  3
B5
350
44B
  3
B6
350
44C
  3
B7
350
44D
  3
B8
350
44E
  3
B9
350
44F
  3
C0
350
450
  3
C1
350
451
  3
C2
350
452
  3
C3
350
453
  3
C4
350
454
  3
C5
350
455
  3
C6
350
456
  3
C7
350
457
  3
C8
350
458
  3
C9
350
459
  3
D0
350
45A
  3
D1
350
45B
  3
D2
350
45C
  0
DICTIONARY
  5
2A
102
{ACAD_REACTORS
330
C
102
}
330
C
100
AcDbDictionary
281
     1
  3
2dWireframe
350
2F
  3
3D Hidden
350
31
  3
3dWireframe
350
30
  3
Basic
350
32
  3
Brighten
350
36
  3
ColorChange
350
3A
  3
Conceptual
350
34
  3
Dim
350
35
  3
Facepattern
350
39
  3
Flat
350
2B
  3
FlatWithEdges
350
2C
  3
Gouraud
350
2D
  3
GouraudWithEdges
350
2E
  3
Linepattern
350
38
  3
Realistic
350
33
  3
Thicken
350
37
  0
DICTIONARY
  5
4C3
102
{ACAD_REACTORS
330
C
102
}
330
C
100
AcDbDictionary
281
     1
  3
CANNOSCALE
350
4C6
  3
DIMASSOC
350
4C7
  3
HIDETEXT
350
4C8
  0
LAYOUT
  5
1E
102
{ACAD_REACTORS
330
1A
102
}
330
1A
100
AcDbPlotSettings
  1

  2
none_device
  4

  6

 40
0.0
 41
0.0
 42
0.0
 43
0.0
 44
0.0
 45
0.0
 46
0.0
 47
0.0
 48
0.0
 49
0.0
140
0.0
141
0.0
142
1.0
143
1.0
 70
   688
 72
     0
 73
     0
 74
     5
  7

 75
    16
147
1.0
148
0.0
149
0.0
100
AcDbLayout
  1
Layout1
 70
     1
 71
     1
 10
0.0
 20
0.0
 11
12.0
 21
9.0
 12
0.0
 22
0.0
 32
0.0
 14
1.00000000000000E+20
 24
1.00000000000000E+20
 34
1.00000000000000E+20
 15
-1.00000000000000E+20
 25
-1.00000000000000E+20
 35
-1.00000000000000E+20
146
0.0
 13
0.0
 23
0.0
 33
0.0
 16
1.0
 26
0.0
 36
0.0
 17
0.0
 27
1.0
 37
0.0
 76
     0
330
1B
  0
LAYOUT
  5
26
102
{ACAD_REACTORS
330
1A
102
}
330
1A
100
AcDbPlotSettings
  1

  2
none_device
  4

  6

 40
0.0
 41
0.0
 42
0.0
 43
0.0
 44
0.0
 45
0.0
 46
0.0
 47
0.0
 48
0.0
 49
0.0
140
0.0
141
0.0
142
1.0
143
1.0
 70
   688
 72
     0
 73
     0
 74
     5
  7

 75
    16
147
1.0
148
0.0
149
0.0
100
AcDbLayout
  1
Layout2
 70
     1
 71
     2
 10
0.0
 20
0.0
 11
0.0
 21
0.0
 12
0.0
 22
0.0
 32
0.0
 14
0.0
 24
0.0
 34
0.0
 15
0.0
 25
0.0
 35
0.0
146
0.0
 13
0.0
 23
0.0
 33
0.0
 16
1.0
 26
0.0
 36
0.0
 17
0.0
 27
1.0
 37
0.0
 76
     0
330
23
  0
LAYOUT
  5
22
102
{ACAD_REACTORS
330
1A
102
}
330
1A
100
AcDbPlotSettings
  1

  2
none_device
  4

  6

 40
0.0
 41
0.0
 42
0.0
 43
0.0
 44
0.0
 45
0.0
 46
0.0
 47
0.0
 48
0.0
 49
0.0
140
0.0
141
0.0
142
1.0
143
1.0
 70
  1712
 72
     0
 73
     0
 74
     0
  7

 75
     0
147
1.0
148
0.0
149
0.0
100
AcDbLayout
  1
Model
 70
     1
 71
     0
 10
0.0
 20
0.0
 11
12.0
 21
9.0
 12
0.0
 22
0.0
 32
0.0
 14
-594.0
 24
0.0
 34
0.0
 15
0.0
 25
420.0
 35
0.0
146
0.0
 13
0.0
 23
0.0
 33
0.0
 16
1.0
 26
0.0
 36
0.0
 17
0.0
 27
1.0
 37
0.0
 76
     0
330
1F
331
29
  0
MATERIAL
  5
3D
102
{ACAD_REACTORS
330
3B
102
}
102
{ACAD_XDICTIONARY
360
4EB
102
}
330
3B
100
AcDbMaterial
  1
ByBlock
  0
MATERIAL
  5
3C
102
{ACAD_REACTORS
330
3B
102
}
102
{ACAD_XDICTIONARY
360
4E9
102
}
330
3B
100
AcDbMaterial
  1
ByLayer
  0
MATERIAL
  5
3E
102
{ACAD_REACTORS
330
3B
102
}
102
{ACAD_XDICTIONARY
360
4ED
102
}
330
3B
100
AcDbMaterial
  1
Global
  0
MLINESTYLE
  5
18
102
{ACAD_REACTORS
330
17
102
}
330
17
100
AcDbMlineStyle
  2
Standard
 70
     0
  3

 62
   256
 51
90.0
 52
90.0
 71
     2
 49
0.5
 62
   256
  6
BYLAYER
 49
-0.5
 62
   256
  6
BYLAYER
  0
ACDBPLACEHOLDER
  5
F
102
{ACAD_REACTORS
330
E
102
}
330
E
  0
SCALE
  5
43C
102
{ACAD_REACTORS
330
43B
102
}
330
43B
100
AcDbScale
 70
     0
300
1:1
140
1.0
141
1.0
290
     1
  0
SCALE
  5
43D
102
{ACAD_REACTORS
330
43B
102
}
330
43B
100
AcDbScale
 70
     0
300
1:2
140
1.0
141
2.0
290
     0
  0
SCALE
  5
43E
102
{ACAD_REACTORS
330
43B
102
}
330
43B
100
AcDbScale
 70
     0
300
1:4
140
1.0
141
4.0
290
     0
  0
SCALE
  5
43F
102
{ACAD_REACTORS
330
43B
102
}
330
43B
100
AcDbScale
 70
     0
300
1:5
140
1.0
141
5.0
290
     0
  0
SCALE
  5
440
102
{ACAD_REACTORS
330
43B
102
}
330
43B
100
AcDbScale
 70
     0
300
1:8
140
1.0
141
8.0
290
     0
  0
SCALE
  5
441
102
{ACAD_REACTORS
330
43B
102
}
330
43B
100
AcDbScale
 70
     0
300
1:10
140
1.0
141
10.0
290
     0
  0
SCALE
  5
442
102
{ACAD_REACTORS
330
43B
102
}
330
43B
100
AcDbScale
 70
     0
300
1:16
140
1.0
141
16.0
290
     0
  0
SCALE
  5
443
102
{ACAD_REACTORS
330
43B
102
}
330
43B
100
AcDbScale
 70
     0
300
1:20
140
1.0
141
20.0
290
     0
  0
SCALE
  5
444
102
{ACAD_REACTORS
330
43B
102
}
330
43B
100
AcDbScale
 70
     0
300
1:30
140
1.0
141
30.0
290
     0
  0
SCALE
  5
445
102
{ACAD_REACTORS
330
43B
102
}
330
43B
100
AcDbScale
 70
     0
300
1:40
140
1.0
141
40.0
290
     0
  0
SCALE
  5
446
102
{ACAD_REACTORS
330
43B
102
}
330
43B
100
AcDbScale
 70
     0
300
1:50
140
1.0
141
50.0
290
     0
  0
SCALE
  5
447
102
{ACAD_REACTORS
330
43B
102
}
330
43B
100
AcDbScale
 70
     0
300
1:100
140
1.0
141
100.0
290
     0
  0
SCALE
  5
448
102
{ACAD_REACTORS
330
43B
102
}
330
43B
100
AcDbScale
 70
     0
300
2:1
140
2.0
141
1.0
290
     0
  0
SCALE
  5
449
102
{ACAD_REACTORS
330
43B
102
}
330
43B
100
AcDbScale
 70
     0
300
4:1
140
4.0
141
1.0
290
     0
  0
SCALE
  5
44A
102
{ACAD_REACTORS
330
43B
102
}
330
43B
100
AcDbScale
 70
     0
300
8:1
140
8.0
141
1.0
290
     0
  0
SCALE
  5
44B
102
{ACAD_REACTORS
330
43B
102
}
330
43B
100
AcDbScale
 70
     0
300
10:1
140
10.0
141
1.0
290
     0
  0
SCALE
  5
44C
102
{ACAD_REACTORS
330
43B
102
}
330
43B
100
AcDbScale
 70
     0
300
100:1
140
100.0
141
1.0
290
     0
  0
SCALE
  5
44D
102
{ACAD_REACTORS
330
43B
102
}
330
43B
100
AcDbScale
 70
     0
300
1/128" = 1'-0"
140
0.0078125
141
12.0
290
     0
  0
SCALE
  5
44E
102
{ACAD_REACTORS
330
43B
102
}
330
43B
100
AcDbScale
 70
     0
300
1/64" = 1'-0"
140
0.015625
141
12.0
290
     0
  0
SCALE
  5
44F
102
{ACAD_REACTORS
330
43B
102
}
330
43B
100
AcDbScale
 70
     0
300
1/32" = 1'-0"
140
0.03125
141
12.0
290
     0
  0
SCALE
  5
450
102
{ACAD_REACTORS
330
43B
102
}
330
43B
100
AcDbScale
 70
     0
300
1/16" = 1'-0"
140
0.0625
141
12.0
290
     0
  0
SCALE
  5
451
102
{ACAD_REACTORS
330
43B
102
}
330
43B
100
AcDbScale
 70
     0
300
3/32" = 1'-0"
140
0.09375
141
12.0
290
     0
  0
SCALE
  5
452
102
{ACAD_REACTORS
330
43B
102
}
330
43B
100
AcDbScale
 70
     0
300
1/8" = 1'-0"
140
0.125
141
12.0
290
     0
  0
SCALE
  5
453
102
{ACAD_REACTORS
330
43B
102
}
330
43B
100
AcDbScale
 70
     0
300
3/16" = 1'-0"
140
0.1875
141
12.0
290
     0
  0
SCALE
  5
454
102
{ACAD_REACTORS
330
43B
102
}
330
43B
100
AcDbScale
 70
     0
300
1/4" = 1'-0"
140
0.25
141
12.0
290
     0
  0
SCALE
  5
455
102
{ACAD_REACTORS
330
43B
102
}
330
43B
100
AcDbScale
 70
     0
300
3/8" = 1'-0"
140
0.375
141
12.0
290
     0
  0
SCALE
  5
456
102
{ACAD_REACTORS
330
43B
102
}
330
43B
100
AcDbScale
 70
     0
300
1/2" = 1'-0"
140
0.5
141
12.0
290
     0
  0
SCALE
  5
457
102
{ACAD_REACTORS
330
43B
102
}
330
43B
100
AcDbScale
 70
     0
300
3/4" = 1'-0"
140
0.75
141
12.0
290
     0
  0
SCALE
  5
458
102
{ACAD_REACTORS
330
43B
102
}
330
43B
100
AcDbScale
 70
     0
300
1" = 1'-0"
140
1.0
141
12.0
290
     0
  0
SCALE
  5
459
102
{ACAD_REACTORS
330
43B
102
}
330
43B
100
AcDbScale
 70
     0
300
1-1/2" = 1'-0"
140
1.5
141
12.0
290
     0
  0
SCALE
  5
45A
102
{ACAD_REACTORS
330
43B
102
}
330
43B
100
AcDbScale
 70
     0
300
3" = 1'-0"
140
3.0
141
12.0
290
     0
  0
SCALE
  5
45B
102
{ACAD_REACTORS
330
43B
102
}
330
43B
100
AcDbScale
 70
     0
300
6" = 1'-0"
140
6.0
141
12.0
290
     0
  0
SCALE
  5
45C
102
{ACAD_REACTORS
330
43B
102
}
330
43B
100
AcDbScale
 70
     0
300
1'-0" = 1'-0"
140
12.0
141
12.0
290
     0
  0
VISUALSTYLE
  5
2F
102
{ACAD_REACTORS
330
2A
102
}
102
{ACAD_XDICTIONARY
360
4D1
102
}
330
2A
100
AcDbVisualStyle
  2
2dWireframe
 70
     4
 71
     0
 72
     2
 73
     0
 90
        0
 40
-0.6
 41
-30.0
 62
     5
 63
     7
 74
     1
 91
        4
 64
     7
 65
   257
 75
     1
175
     1
 42
1.0
 92
        0
 66
   257
 43
1.0
 76
     1
 77
     6
 78
     2
 67
     7
 79
     5
170
     0
171
     0
290
     0
174
     0
 93
        1
 44
0.0
173
     0
291
     0
 45
0.0
1001
ACAD
1000
AcDbSavedByObjectVersion
1070
     0
  0
VISUALSTYLE
  5
31
102
{ACAD_REACTORS
330
2A
102
}
102
{ACAD_XDICTIONARY
360
4D5
102
}
330
2A
100
AcDbVisualStyle
  2
3D Hidden
 70
     6
 71
     1
 72
     2
 73
     2
 90
        0
 40
-0.6
 41
-30.0
 62
     5
 63
     7
 74
     2
 91
        2
 64
     7
 65
   257
 75
     2
175
     1
 42
40.0
 92
        0
 66
   257
 43
1.0
 76
     1
 77
     6
 78
     2
 67
     7
 79
     3
170
     0
171
     0
290
     0
174
     0
 93
        1
 44
0.0
173
     0
291
     0
 45
0.0
1001
ACAD
1000
AcDbSavedByObjectVersion
1070
     0
  0
VISUALSTYLE
  5
30
102
{ACAD_REACTORS
330
2A
102
}
102
{ACAD_XDICTIONARY
360
4D3
102
}
330
2A
100
AcDbVisualStyle
  2
3dWireframe
 70
     5
 71
     0
 72
     2
 73
     0
 90
        0
 40
-0.6
 41
-30.0
 62
     5
 63
     7
 74
     1
 91
        4
 64
     7
 65
   257
 75
     1
175
     1
 42
1.0
 92
        0
 66
   257
 43
1.0
 76
     1
 77
     6
 78
     2
 67
     7
 79
     5
170
     0
171
     0
290
     0
174
     0
 93
        1
 44
0.0
173
     0
291
     0
 45
0.0
1001
ACAD
1000
AcDbSavedByObjectVersion
1070
     0
  0
VISUALSTYLE
  5
32
102
{ACAD_REACTORS
330
2A
102
}
102
{ACAD_XDICTIONARY
360
4D7
102
}
330
2A
100
AcDbVisualStyle
  2
Basic
 70
     7
 71
     1
 72
     0
 73
     1
 90
        0
 40
-0.6
 41
-30.0
 62
     5
 63
     7
 74
     0
 91
        4
 64
     7
 65
   257
 75
     1
175
     1
 42
1.0
 92
        8
 66
     7
 43
1.0
 76
     1
 77
     6
 78
     2
 67
     7
 79
     5
170
     0
171
     0
290
     0
174
     0
 93
        1
 44
0.0
173
     0
291
     1
 45
0.0
1001
ACAD
1000
AcDbSavedByObjectVersion
1070
     0
  0
VISUALSTYLE
  5
36
102
{ACAD_REACTORS
330
2A
102
}
102
{ACAD_XDICTIONARY
360
4DF
102
}
330
2A
100
AcDbVisualStyle
  2
Brighten
 70
    12
 71
     2
 72
     2
 73
     0
 90
        0
 40
-0.6
 41
-30.0
 62
     5
 63
     7
 74
     1
 91
        4
 64
     7
 65
   257
 75
     1
175
     1
 42
1.0
 92
        8
 66
     7
 43
1.0
 76
     1
 77
     6
 78
     2
 67
     7
 79
     5
170
     0
171
     0
290
     0
174
     0
 93
        1
 44
50.0
173
     0
291
     1
 45
0.0
1001
ACAD
1000
AcDbSavedByObjectVersion
1070
     0
  0
VISUALSTYLE
  5
3A
102
{ACAD_REACTORS
330
2A
102
}
102
{ACAD_XDICTIONARY
360
4E7
102
}
330
2A
100
AcDbVisualStyle
  2
ColorChange
 70
    16
 71
     2
 72
     2
 73
     3
 90
        0
 40
-0.6
 41
-30.0
 62
     5
 63
     8
 74
     1
 91
        4
 64
     7
 65
   257
 75
     1
175
     1
 42
1.0
 92
        8
 66
     8
 43
1.0
 76
     1
 77
     6
 78
     2
 67
     7
 79
     5
170
     0
171
     0
290
     0
174
     0
 93
        1
 44
0.0
173
     0
291
     1
 45
0.0
1001
ACAD
1000
AcDbSavedByObjectVersion
1070
     0
  0
VISUALSTYLE
  5
34
102
{ACAD_REACTORS
330
2A
102
}
102
{ACAD_XDICTIONARY
360
4DB
102
}
330
2A
100
AcDbVisualStyle
  2
Conceptual
 70
     9
 71
     3
 72
     2
 73
     0
 90
        0
 40
-0.6
 41
-30.0
 62
     5
 63
     7
 74
     2
 91
        2
 64
     7
 65
   257
 75
     1
175
     1
 42
40.0
 92
        8
 66
     7
 43
1.0
 76
     1
 77
     6
 78
     2
 67
     7
 79
     3
170
     0
171
     0
290
     0
174
     0
 93
        1
 44
0.0
173
     0
291
     0
 45
0.0
1001
ACAD
1000
AcDbSavedByObjectVersion
1070
     0
  0
VISUALSTYLE
  5
35
102
{ACAD_REACTORS
330
2A
102
}
102
{ACAD_XDICTIONARY
360
4DD
102
}
330
2A
100
AcDbVisualStyle
  2
Dim
 70
    11
 71
     2
 72
     2
 73
     0
 90
        0
 40
-0.6
 41
-30.0
 62
     5
 63
     7
 74
     1
 91
        4
 64
     7
 65
   257
 75
     1
175
     1
 42
1.0
 92
        8
 66
     7
 43
1.0
 76
     1
 77
     6
 78
     2
 67
     7
 79
     5
170
     0
171
     0
290
     0
174
     0
 93
        1
 44
-50.0
173
     0
291
     1
 45
0.0
1001
ACAD
1000
AcDbSavedByObjectVersion
1070
     0
  0
VISUALSTYLE
  5
39
102
{ACAD_REACTORS
330
2A
102
}
102
{ACAD_XDICTIONARY
360
4E5
102
}
330
2A
100
AcDbVisualStyle
  2
Facepattern
 70
    15
 71
     2
 72
     2
 73
     0
 90
        0
 40
-0.6
 41
-30.0
 62
     5
 63
     7
 74
     1
 91
        4
 64
     7
 65
   257
 75
     1
175
     1
 42
1.0
 92
        8
 66
     7
 43
1.0
 76
     1
 77
     6
 78
     2
 67
     7
 79
     5
170
     0
171
     0
290
     0
174
     0
 93
        1
 44
0.0
173
     0
291
     1
 45
0.0
1001
ACAD
1000
AcDbSavedByObjectVersion
1070
     0
  0
VISUALSTYLE
  5
2B
102
{ACAD_REACTORS
330
2A
102
}
102
{ACAD_XDICTIONARY
360
4C9
102
}
330
2A
100
AcDbVisualStyle
  2
Flat
 70
     0
 71
     2
 72
     1
 73
     1
 90
        2
 40
-0.6
 41
30.0
 62
     5
 63
     7
 74
     0
 91
        4
 64
     7
 65
   257
 75
     1
175
     1
 42
1.0
 92
        8
 66
     7
 43
1.0
 76
     1
 77
     6
 78
     2
 67
     7
 79
     5
170
     0
171
     0
290
     0
174
     0
 93
       13
 44
0.0
173
     0
291
     1
 45
0.0
1001
ACAD
1000
AcDbSavedByObjectVersion
1070
     0
  0
VISUALSTYLE
  5
2C
102
{ACAD_REACTORS
330
2A
102
}
102
{ACAD_XDICTIONARY
360
4CB
102
}
330
2A
100
AcDbVisualStyle
  2
FlatWithEdges
 70
     1
 71
     2
 72
     1
 73
     1
 90
        2
 40
-0.6
 41
30.0
 62
     5
 63
     7
 74
     1
 91
        4
 64
     7
 65
   257
 75
     1
175
     1
 42
1.0
 92
        0
 66
   257
 43
1.0
 76
     1
 77
     6
 78
     2
 67
     7
 79
     5
170
     0
171
     0
290
     0
174
     0
 93
       13
 44
0.0
173
     0
291
     1
 45
0.0
1001
ACAD
1000
AcDbSavedByObjectVersion
1070
     0
  0
VISUALSTYLE
  5
2D
102
{ACAD_REACTORS
330
2A
102
}
102
{ACAD_XDICTIONARY
360
4CD
102
}
330
2A
100
AcDbVisualStyle
  2
Gouraud
 70
     2
 71
     2
 72
     2
 73
     1
 90
        2
 40
-0.6
 41
30.0
 62
     5
 63
     7
 74
     0
 91
        4
 64
     7
 65
   257
 75
     1
175
     1
 42
1.0
 92
        0
 66
     7
 43
1.0
 76
     1
 77
     6
 78
     2
 67
     7
 79
     5
170
     0
171
     0
290
     0
174
     0
 93
       13
 44
0.0
173
     0
291
     1
 45
0.0
1001
ACAD
1000
AcDbSavedByObjectVersion
1070
     0
  0
VISUALSTYLE
  5
2E
102
{ACAD_REACTORS
330
2A
102
}
102
{ACAD_XDICTIONARY
360
4CF
102
}
330
2A
100
AcDbVisualStyle
  2
GouraudWithEdges
 70
     3
 71
     2
 72
     2
 73
     1
 90
        2
 40
-0.6
 41
30.0
 62
     5
 63
     7
 74
     1
 91
        4
 64
     7
 65
   257
 75
     1
175
     1
 42
1.0
 92
        0
 66
   257
 43
1.0
 76
     1
 77
     6
 78
     2
 67
     7
 79
     5
170
     0
171
     0
290
     0
174
     0
 93
       13
 44
0.0
173
     0
291
     1
 45
0.0
1001
ACAD
1000
AcDbSavedByObjectVersion
1070
     0
  0
VISUALSTYLE
  5
38
102
{ACAD_REACTORS
330
2A
102
}
102
{ACAD_XDICTIONARY
360
4E3
102
}
330
2A
100
AcDbVisualStyle
  2
Linepattern
 70
    14
 71
     2
 72
     2
 73
     0
 90
        0
 40
-0.6
 41
-30.0
 62
     5
 63
     7
 74
     1
 91
        4
 64
     7
 65
   257
 75
     7
175
     7
 42
1.0
 92
        8
 66
     7
 43
1.0
 76
     1
 77
     6
 78
     2
 67
     7
 79
     5
170
     0
171
     0
290
     0
174
     0
 93
        1
 44
0.0
173
     0
291
     1
 45
0.0
1001
ACAD
1000
AcDbSavedByObjectVersion
1070
     0
  0
VISUALSTYLE
  5
33
102
{ACAD_REACTORS
330
2A
102
}
102
{ACAD_XDICTIONARY
360
4D9
102
}
330
2A
100
AcDbVisualStyle
  2
Realistic
 70
     8
 71
     2
 72
     2
 73
     0
 90
        0
 40
-0.6
 41
-30.0
 62
     5
 63
     7
 74
     1
 91
        0
 64
     7
 65
   257
 75
     1
175
     1
 42
1.0
 92
        8
 66
     8
 43
1.0
 76
     1
 77
     6
 78
     2
 67
     7
 79
     5
170
     0
171
     0
290
     0
174
     0
 93
       13
 44
0.0
173
     0
291
     0
 45
0.0
1001
ACAD
1000
AcDbSavedByObjectVersion
1070
     0
  0
VISUALSTYLE
  5
37
102
{ACAD_REACTORS
330
2A
102
}
102
{ACAD_XDICTIONARY
360
4E1
102
}
330
2A
100
AcDbVisualStyle
  2
Thicken
 70
    13
 71
     2
 72
     2
 73
     0
 90
        0
 40
-0.6
 41
-30.0
 62
     5
 63
     7
 74
     1
 91
        4
 64
     7
 65
   257
 75
     1
175
     1
 42
1.0
 92
       12
 66
     7
 43
1.0
 76
     1
 77
     6
 78
     2
 67
     7
 79
     5
170
     0
171
     0
290
     0
174
     0
 93
        1
 44
0.0
173
     0
291
     1
 45
0.0
1001
ACAD
1000
AcDbSavedByObjectVersion
1070
     0
  0
DICTIONARYVAR
  5
4C6
102
{ACAD_REACTORS
330
4C3
102
}
330
4C3
100
DictionaryVariables
280
     0
  1
1:1
  0
DICTIONARYVAR
  5
4C7
102
{ACAD_REACTORS
330
4C3
102
}
330
4C3
100
DictionaryVariables
280
     0
  1
2
  0
DICTIONARYVAR
  5
4C8
102
{ACAD_REACTORS
330
4C3
102
}
330
4C3
100
DictionaryVariables
280
     0
  1
1
  0
DICTIONARY
  5
4EB
330
3D
100
AcDbDictionary
280
     1
281
     1
  3
ACAD_XREC_ROUNDTRIP
360
4EC
  0
DICTIONARY
  5
4E9
330
3C
100
AcDbDictionary
280
     1
281
     1
  3
ACAD_XREC_ROUNDTRIP
360
4EA
  0
DICTIONARY
  5
4ED
330
3E
100
AcDbDictionary
280
     1
281
     1
  3
ACAD_XREC_ROUNDTRIP
360
4EE
  0
DICTIONARY
  5
4D1
330
2F
100
AcDbDictionary
280
     1
281
     1
  3
ACAD_XREC_ROUNDTRIP
360
4D2
  0
DICTIONARY
  5
4D5
330
31
100
AcDbDictionary
280
     1
281
     1
  3
ACAD_XREC_ROUNDTRIP
360
4D6
  0
DICTIONARY
  5
4D3
330
30
100
AcDbDictionary
280
     1
281
     1
  3
ACAD_XREC_ROUNDTRIP
360
4D4
  0
DICTIONARY
  5
4D7
330
32
100
AcDbDictionary
280
     1
281
     1
  3
ACAD_XREC_ROUNDTRIP
360
4D8
  0
DICTIONARY
  5
4DF
330
36
100
AcDbDictionary
280
     1
281
     1
  3
ACAD_XREC_ROUNDTRIP
360
4E0
  0
DICTIONARY
  5
4E7
330
3A
100
AcDbDictionary
280
     1
281
     1
  3
ACAD_XREC_ROUNDTRIP
360
4E8
  0
DICTIONARY
  5
4DB
330
34
100
AcDbDictionary
280
     1
281
     1
  3
ACAD_XREC_ROUNDTRIP
360
4DC
  0
DICTIONARY
  5
4DD
330
35
100
AcDbDictionary
280
     1
281
     1
  3
ACAD_XREC_ROUNDTRIP
360
4DE
  0
DICTIONARY
  5
4E5
330
39
100
AcDbDictionary
280
     1
281
     1
  3
ACAD_XREC_ROUNDTRIP
360
4E6
  0
DICTIONARY
  5
4C9
330
2B
100
AcDbDictionary
280
     1
281
     1
  3
ACAD_XREC_ROUNDTRIP
360
4CA
  0
DICTIONARY
  5
4CB
330
2C
100
AcDbDictionary
280
     1
281
     1
  3
ACAD_XREC_ROUNDTRIP
360
4CC
  0
DICTIONARY
  5
4CD
330
2D
100
AcDbDictionary
280
     1
281
     1
  3
ACAD_XREC_ROUNDTRIP
360
4CE
  0
DICTIONARY
  5
4CF
330
2E
100
AcDbDictionary
280
     1
281
     1
  3
ACAD_XREC_ROUNDTRIP
360
4D0
  0
DICTIONARY
  5
4E3
330
38
100
AcDbDictionary
280
     1
281
     1
  3
ACAD_XREC_ROUNDTRIP
360
4E4
  0
DICTIONARY
  5
4D9
330
33
100
AcDbDictionary
280
     1
281
     1
  3
ACAD_XREC_ROUNDTRIP
360
4DA
  0
DICTIONARY
  5
4E1
330
37
100
AcDbDictionary
280
     1
281
     1
  3
ACAD_XREC_ROUNDTRIP
360
4E2
  0
XRECORD
  5
4EC
102
{ACAD_REACTORS
330
4EB
102
}
330
4EB
100
AcDbXrecord
280
     1
102
MATERIAL
148
0.0
149
0.0
149
0.0
 93
        0
 94
      127
282
     0
 72
     1
 77
     1
171
     1
175
     1
179
     1
273
     0
  0
XRECORD
  5
4EA
102
{ACAD_REACTORS
330
4E9
102
}
330
4E9
100
AcDbXrecord
280
     1
102
MATERIAL
148
0.0
149
0.0
149
0.0
 93
        0
 94
      127
282
     0
 72
     1
 77
     1
171
     1
175
     1
179
     1
273
     0
  0
XRECORD
  5
4EE
102
{ACAD_REACTORS
330
4ED
102
}
330
4ED
100
AcDbXrecord
280
     1
102
MATERIAL
148
0.0
149
0.0
149
0.0
 93
        0
 94
      127
282
     0
 72
     1
 77
     1
171
     1
175
     1
179
     1
273
     0
  0
XRECORD
  5
4D2
102
{ACAD_REACTORS
330
4D1
102
}
330
4D1
100
AcDbXrecord
280
     1
102
RTVSPropertyOp0
 70
     1
102
RTVSPropertyOp1
 70
     1
102
RTVSPropertyOp2
 70
     1
102
RTVSPropertyOp3
 70
     1
102
RTVSPropertyOp4
 70
     1
102
RTVSPropertyOp5
 70
     1
102
RTVSPropertyOp6
 70
     1
102
RTVSPropertyOp7
 70
     1
102
RTVSPropertyOp8
 70
     1
102
RTVSPropertyOp9
 70
     1
102
RTVSPropertyOp10
 70
     1
102
RTVSPropertyOp11
 70
     1
102
RTVSPropertyOp12
 70
     1
102
RTVSPropertyOp13
 70
     1
102
RTVSPropertyOp14
 70
     1
102
RTVSPropertyOp15
 70
     1
102
RTVSPropertyOp16
 70
     1
102
RTVSPropertyOp17
 70
     1
102
RTVSPropertyOp18
 70
     1
102
RTVSPropertyOp19
 70
     1
102
RTVSPropertyOp20
 70
     1
102
RTVSPropertyOp21
 70
     1
102
RTVSPropertyOp22
 70
     1
102
RTVSPropertyOp23
 70
     1
102
RTVSPropertyOp24
 70
     1
102
RTVSPropertyOp25
 70
     1
102
RTVSPropertyOp26
 70
     1
102
RTVSPropertyOp27
 70
     1
  0
XRECORD
  5
4D6
102
{ACAD_REACTORS
330
4D5
102
}
330
4D5
100
AcDbXrecord
280
     1
102
RTVSPropertyOp0
 70
     1
102
RTVSPropertyOp1
 70
     1
102
RTVSPropertyOp2
 70
     1
102
RTVSPropertyOp3
 70
     1
102
RTVSPropertyOp4
 70
     1
102
RTVSPropertyOp5
 70
     1
102
RTVSPropertyOp6
 70
     1
102
RTVSPropertyOp7
 70
     1
102
RTVSPropertyOp8
 70
     1
102
RTVSPropertyOp9
 70
     1
102
RTVSPropertyOp10
 70
     1
102
RTVSPropertyOp11
 70
     1
102
RTVSPropertyOp12
 70
     1
102
RTVSPropertyOp13
 70
     1
102
RTVSPropertyOp14
 70
     1
102
RTVSPropertyOp15
 70
     1
102
RTVSPropertyOp16
 70
     1
102
RTVSPropertyOp17
 70
     1
102
RTVSPropertyOp18
 70
     1
102
RTVSPropertyOp19
 70
     1
102
RTVSPropertyOp20
 70
     1
102
RTVSPropertyOp21
 70
     1
102
RTVSPropertyOp22
 70
     1
102
RTVSPropertyOp23
 70
     1
102
RTVSPropertyOp24
 70
     1
102
RTVSPropertyOp25
 70
     1
102
RTVSPropertyOp26
 70
     1
102
RTVSPropertyOp27
 70
     1
  0
XRECORD
  5
4D4
102
{ACAD_REACTORS
330
4D3
102
}
330
4D3
100
AcDbXrecord
280
     1
102
RTVSPropertyOp0
 70
     1
102
RTVSPropertyOp1
 70
     1
102
RTVSPropertyOp2
 70
     1
102
RTVSPropertyOp3
 70
     1
102
RTVSPropertyOp4
 70
     1
102
RTVSPropertyOp5
 70
     1
102
RTVSPropertyOp6
 70
     1
102
RTVSPropertyOp7
 70
     1
102
RTVSPropertyOp8
 70
     1
102
RTVSPropertyOp9
 70
     1
102
RTVSPropertyOp10
 70
     1
102
RTVSPropertyOp11
 70
     1
102
RTVSPropertyOp12
 70
     1
102
RTVSPropertyOp13
 70
     1
102
RTVSPropertyOp14
 70
     1
102
RTVSPropertyOp15
 70
     1
102
RTVSPropertyOp16
 70
     1
102
RTVSPropertyOp17
 70
     1
102
RTVSPropertyOp18
 70
     1
102
RTVSPropertyOp19
 70
     1
102
RTVSPropertyOp20
 70
     1
102
RTVSPropertyOp21
 70
     1
102
RTVSPropertyOp22
 70
     1
102
RTVSPropertyOp23
 70
     1
102
RTVSPropertyOp24
 70
     1
102
RTVSPropertyOp25
 70
     1
102
RTVSPropertyOp26
 70
     1
102
RTVSPropertyOp27
 70
     1
  0
XRECORD
  5
4D8
102
{ACAD_REACTORS
330
4D7
102
}
330
4D7
100
AcDbXrecord
280
     1
102
RTVSPropertyOp0
 70
     1
102
RTVSPropertyOp1
 70
     1
102
RTVSPropertyOp2
 70
     1
102
RTVSPropertyOp3
 70
     1
102
RTVSPropertyOp4
 70
     1
102
RTVSPropertyOp5
 70
     1
102
RTVSPropertyOp6
 70
     1
102
RTVSPropertyOp7
 70
     1
102
RTVSPropertyOp8
 70
     1
102
RTVSPropertyOp9
 70
     1
102
RTVSPropertyOp10
 70
     1
102
RTVSPropertyOp11
 70
     1
102
RTVSPropertyOp12
 70
     1
102
RTVSPropertyOp13
 70
     1
102
RTVSPropertyOp14
 70
     1
102
RTVSPropertyOp15
 70
     1
102
RTVSPropertyOp16
 70
     1
102
RTVSPropertyOp17
 70
     1
102
RTVSPropertyOp18
 70
     1
102
RTVSPropertyOp19
 70
     1
102
RTVSPropertyOp20
 70
     1
102
RTVSPropertyOp21
 70
     1
102
RTVSPropertyOp22
 70
     1
102
RTVSPropertyOp23
 70
     1
102
RTVSPropertyOp24
 70
     1
102
RTVSPropertyOp25
 70
     1
102
RTVSPropertyOp26
 70
     1
102
RTVSPropertyOp27
 70
     1
  0
XRECORD
  5
4E0
102
{ACAD_REACTORS
330
4DF
102
}
330
4DF
100
AcDbXrecord
280
     1
102
RTVSPropertyOp0
 70
     1
102
RTVSPropertyOp1
 70
     1
102
RTVSPropertyOp2
 70
     1
102
RTVSPropertyOp3
 70
     1
102
RTVSPropertyOp4
 70
     1
102
RTVSPropertyOp5
 70
     1
102
RTVSPropertyOp6
 70
     1
102
RTVSPropertyOp7
 70
     1
102
RTVSPropertyOp8
 70
     1
102
RTVSPropertyOp9
 70
     1
102
RTVSPropertyOp10
 70
     1
102
RTVSPropertyOp11
 70
     1
102
RTVSPropertyOp12
 70
     1
102
RTVSPropertyOp13
 70
     1
102
RTVSPropertyOp14
 70
     1
102
RTVSPropertyOp15
 70
     1
102
RTVSPropertyOp16
 70
     1
102
RTVSPropertyOp17
 70
     1
102
RTVSPropertyOp18
 70
     1
102
RTVSPropertyOp19
 70
     1
102
RTVSPropertyOp20
 70
     1
102
RTVSPropertyOp21
 70
     1
102
RTVSPropertyOp22
 70
     1
102
RTVSPropertyOp23
 70
     1
102
RTVSPropertyOp24
 70
     1
102
RTVSPropertyOp25
 70
     1
102
RTVSPropertyOp26
 70
     1
102
RTVSPropertyOp27
 70
     1
  0
XRECORD
  5
4E8
102
{ACAD_REACTORS
330
4E7
102
}
330
4E7
100
AcDbXrecord
280
     1
102
RTVSPropertyOp0
 70
     1
102
RTVSPropertyOp1
 70
     1
102
RTVSPropertyOp2
 70
     1
102
RTVSPropertyOp3
 70
     1
102
RTVSPropertyOp4
 70
     1
102
RTVSPropertyOp5
 70
     1
102
RTVSPropertyOp6
 70
     1
102
RTVSPropertyOp7
 70
     1
102
RTVSPropertyOp8
 70
     1
102
RTVSPropertyOp9
 70
     1
102
RTVSPropertyOp10
 70
     1
102
RTVSPropertyOp11
 70
     1
102
RTVSPropertyOp12
 70
     1
102
RTVSPropertyOp13
 70
     1
102
RTVSPropertyOp14
 70
     1
102
RTVSPropertyOp15
 70
     1
102
RTVSPropertyOp16
 70
     1
102
RTVSPropertyOp17
 70
     1
102
RTVSPropertyOp18
 70
     1
102
RTVSPropertyOp19
 70
     1
102
RTVSPropertyOp20
 70
     1
102
RTVSPropertyOp21
 70
     1
102
RTVSPropertyOp22
 70
     1
102
RTVSPropertyOp23
 70
     1
102
RTVSPropertyOp24
 70
     1
102
RTVSPropertyOp25
 70
     1
102
RTVSPropertyOp26
 70
     1
102
RTVSPropertyOp27
 70
     1
  0
XRECORD
  5
4DC
102
{ACAD_REACTORS
330
4DB
102
}
330
4DB
100
AcDbXrecord
280
     1
102
RTVSPropertyOp0
 70
     1
102
RTVSPropertyOp1
 70
     1
102
RTVSPropertyOp2
 70
     1
102
RTVSPropertyOp3
 70
     1
102
RTVSPropertyOp4
 70
     1
102
RTVSPropertyOp5
 70
     1
102
RTVSPropertyOp6
 70
     1
102
RTVSPropertyOp7
 70
     1
102
RTVSPropertyOp8
 70
     1
102
RTVSPropertyOp9
 70
     1
102
RTVSPropertyOp10
 70
     1
102
RTVSPropertyOp11
 70
     1
102
RTVSPropertyOp12
 70
     1
102
RTVSPropertyOp13
 70
     1
102
RTVSPropertyOp14
 70
     1
102
RTVSPropertyOp15
 70
     1
102
RTVSPropertyOp16
 70
     1
102
RTVSPropertyOp17
 70
     1
102
RTVSPropertyOp18
 70
     1
102
RTVSPropertyOp19
 70
     1
102
RTVSPropertyOp20
 70
     1
102
RTVSPropertyOp21
 70
     1
102
RTVSPropertyOp22
 70
     1
102
RTVSPropertyOp23
 70
     1
102
RTVSPropertyOp24
 70
     1
102
RTVSPropertyOp25
 70
     1
102
RTVSPropertyOp26
 70
     1
102
RTVSPropertyOp27
 70
     1
  0
XRECORD
  5
4DE
102
{ACAD_REACTORS
330
4DD
102
}
330
4DD
100
AcDbXrecord
280
     1
102
RTVSPropertyOp0
 70
     1
102
RTVSPropertyOp1
 70
     1
102
RTVSPropertyOp2
 70
     1
102
RTVSPropertyOp3
 70
     1
102
RTVSPropertyOp4
 70
     1
102
RTVSPropertyOp5
 70
     1
102
RTVSPropertyOp6
 70
     1
102
RTVSPropertyOp7
 70
     1
102
RTVSPropertyOp8
 70
     1
102
RTVSPropertyOp9
 70
     1
102
RTVSPropertyOp10
 70
     1
102
RTVSPropertyOp11
 70
     1
102
RTVSPropertyOp12
 70
     1
102
RTVSPropertyOp13
 70
     1
102
RTVSPropertyOp14
 70
     1
102
RTVSPropertyOp15
 70
     1
102
RTVSPropertyOp16
 70
     1
102
RTVSPropertyOp17
 70
     1
102
RTVSPropertyOp18
 70
     1
102
RTVSPropertyOp19
 70
     1
102
RTVSPropertyOp20
 70
     1
102
RTVSPropertyOp21
 70
     1
102
RTVSPropertyOp22
 70
     1
102
RTVSPropertyOp23
 70
     1
102
RTVSPropertyOp24
 70
     1
102
RTVSPropertyOp25
 70
     1
102
RTVSPropertyOp26
 70
     1
102
RTVSPropertyOp27
 70
     1
  0
XRECORD
  5
4E6
102
{ACAD_REACTORS
330
4E5
102
}
330
4E5
100
AcDbXrecord
280
     1
102
RTVSPropertyOp0
 70
     1
102
RTVSPropertyOp1
 70
     1
102
RTVSPropertyOp2
 70
     1
102
RTVSPropertyOp3
 70
     1
102
RTVSPropertyOp4
 70
     1
102
RTVSPropertyOp5
 70
     1
102
RTVSPropertyOp6
 70
     1
102
RTVSPropertyOp7
 70
     1
102
RTVSPropertyOp8
 70
     1
102
RTVSPropertyOp9
 70
     1
102
RTVSPropertyOp10
 70
     1
102
RTVSPropertyOp11
 70
     1
102
RTVSPropertyOp12
 70
     1
102
RTVSPropertyOp13
 70
     1
102
RTVSPropertyOp14
 70
     1
102
RTVSPropertyOp15
 70
     1
102
RTVSPropertyOp16
 70
     1
102
RTVSPropertyOp17
 70
     1
102
RTVSPropertyOp18
 70
     1
102
RTVSPropertyOp19
 70
     1
102
RTVSPropertyOp20
 70
     1
102
RTVSPropertyOp21
 70
     1
102
RTVSPropertyOp22
 70
     1
102
RTVSPropertyOp23
 70
     1
102
RTVSPropertyOp24
 70
     1
102
RTVSPropertyOp25
 70
     1
102
RTVSPropertyOp26
 70
     1
102
RTVSPropertyOp27
 70
     1
  0
XRECORD
  5
4CA
102
{ACAD_REACTORS
330
4C9
102
}
330
4C9
100
AcDbXrecord
280
     1
102
RTVSPropertyOp0
 70
     1
102
RTVSPropertyOp1
 70
     1
102
RTVSPropertyOp2
 70
     1
102
RTVSPropertyOp3
 70
     1
102
RTVSPropertyOp4
 70
     1
102
RTVSPropertyOp5
 70
     1
102
RTVSPropertyOp6
 70
     1
102
RTVSPropertyOp7
 70
     1
102
RTVSPropertyOp8
 70
     1
102
RTVSPropertyOp9
 70
     1
102
RTVSPropertyOp10
 70
     1
102
RTVSPropertyOp11
 70
     1
102
RTVSPropertyOp12
 70
     1
102
RTVSPropertyOp13
 70
     1
102
RTVSPropertyOp14
 70
     1
102
RTVSPropertyOp15
 70
     1
102
RTVSPropertyOp16
 70
     1
102
RTVSPropertyOp17
 70
     1
102
RTVSPropertyOp18
 70
     1
102
RTVSPropertyOp19
 70
     1
102
RTVSPropertyOp20
 70
     1
102
RTVSPropertyOp21
 70
     1
102
RTVSPropertyOp22
 70
     1
102
RTVSPropertyOp23
 70
     1
102
RTVSPropertyOp24
 70
     1
102
RTVSPropertyOp25
 70
     1
102
RTVSPropertyOp26
 70
     1
102
RTVSPropertyOp27
 70
     1
  0
XRECORD
  5
4CC
102
{ACAD_REACTORS
330
4CB
102
}
330
4CB
100
AcDbXrecord
280
     1
102
RTVSPropertyOp0
 70
     1
102
RTVSPropertyOp1
 70
     1
102
RTVSPropertyOp2
 70
     1
102
RTVSPropertyOp3
 70
     1
102
RTVSPropertyOp4
 70
     1
102
RTVSPropertyOp5
 70
     1
102
RTVSPropertyOp6
 70
     1
102
RTVSPropertyOp7
 70
     1
102
RTVSPropertyOp8
 70
     1
102
RTVSPropertyOp9
 70
     1
102
RTVSPropertyOp10
 70
     1
102
RTVSPropertyOp11
 70
     1
102
RTVSPropertyOp12
 70
     1
102
RTVSPropertyOp13
 70
     1
102
RTVSPropertyOp14
 70
     1
102
RTVSPropertyOp15
 70
     1
102
RTVSPropertyOp16
 70
     1
102
RTVSPropertyOp17
 70
     1
102
RTVSPropertyOp18
 70
     1
102
RTVSPropertyOp19
 70
     1
102
RTVSPropertyOp20
 70
     1
102
RTVSPropertyOp21
 70
     1
102
RTVSPropertyOp22
 70
     1
102
RTVSPropertyOp23
 70
     1
102
RTVSPropertyOp24
 70
     1
102
RTVSPropertyOp25
 70
     1
102
RTVSPropertyOp26
 70
     1
102
RTVSPropertyOp27
 70
     1
  0
XRECORD
  5
4CE
102
{ACAD_REACTORS
330
4CD
102
}
330
4CD
100
AcDbXrecord
280
     1
102
RTVSPropertyOp0
 70
     1
102
RTVSPropertyOp1
 70
     1
102
RTVSPropertyOp2
 70
     1
102
RTVSPropertyOp3
 70
     1
102
RTVSPropertyOp4
 70
     1
102
RTVSPropertyOp5
 70
     1
102
RTVSPropertyOp6
 70
     1
102
RTVSPropertyOp7
 70
     1
102
RTVSPropertyOp8
 70
     1
102
RTVSPropertyOp9
 70
     1
102
RTVSPropertyOp10
 70
     1
102
RTVSPropertyOp11
 70
     1
102
RTVSPropertyOp12
 70
     1
102
RTVSPropertyOp13
 70
     1
102
RTVSPropertyOp14
 70
     1
102
RTVSPropertyOp15
 70
     1
102
RTVSPropertyOp16
 70
     1
102
RTVSPropertyOp17
 70
     1
102
RTVSPropertyOp18
 70
     1
102
RTVSPropertyOp19
 70
     1
102
RTVSPropertyOp20
 70
     1
102
RTVSPropertyOp21
 70
     1
102
RTVSPropertyOp22
 70
     1
102
RTVSPropertyOp23
 70
     1
102
RTVSPropertyOp24
 70
     1
102
RTVSPropertyOp25
 70
     1
102
RTVSPropertyOp26
 70
     1
102
RTVSPropertyOp27
 70
     1
  0
XRECORD
  5
4D0
102
{ACAD_REACTORS
330
4CF
102
}
330
4CF
100
AcDbXrecord
280
     1
102
RTVSPropertyOp0
 70
     1
102
RTVSPropertyOp1
 70
     1
102
RTVSPropertyOp2
 70
     1
102
RTVSPropertyOp3
 70
     1
102
RTVSPropertyOp4
 70
     1
102
RTVSPropertyOp5
 70
     1
102
RTVSPropertyOp6
 70
     1
102
RTVSPropertyOp7
 70
     1
102
RTVSPropertyOp8
 70
     1
102
RTVSPropertyOp9
 70
     1
102
RTVSPropertyOp10
 70
     1
102
RTVSPropertyOp11
 70
     1
102
RTVSPropertyOp12
 70
     1
102
RTVSPropertyOp13
 70
     1
102
RTVSPropertyOp14
 70
     1
102
RTVSPropertyOp15
 70
     1
102
RTVSPropertyOp16
 70
     1
102
RTVSPropertyOp17
 70
     1
102
RTVSPropertyOp18
 70
     1
102
RTVSPropertyOp19
 70
     1
102
RTVSPropertyOp20
 70
     1
102
RTVSPropertyOp21
 70
     1
102
RTVSPropertyOp22
 70
     1
102
RTVSPropertyOp23
 70
     1
102
RTVSPropertyOp24
 70
     1
102
RTVSPropertyOp25
 70
     1
102
RTVSPropertyOp26
 70
     1
102
RTVSPropertyOp27
 70
     1
  0
XRECORD
  5
4E4
102
{ACAD_REACTORS
330
4E3
102
}
330
4E3
100
AcDbXrecord
280
     1
102
RTVSPropertyOp0
 70
     1
102
RTVSPropertyOp1
 70
     1
102
RTVSPropertyOp2
 70
     1
102
RTVSPropertyOp3
 70
     1
102
RTVSPropertyOp4
 70
     1
102
RTVSPropertyOp5
 70
     1
102
RTVSPropertyOp6
 70
     1
102
RTVSPropertyOp7
 70
     1
102
RTVSPropertyOp8
 70
     1
102
RTVSPropertyOp9
 70
     1
102
RTVSPropertyOp10
 70
     1
102
RTVSPropertyOp11
 70
     1
102
RTVSPropertyOp12
 70
     1
102
RTVSPropertyOp13
 70
     1
102
RTVSPropertyOp14
 70
     1
102
RTVSPropertyOp15
 70
     1
102
RTVSPropertyOp16
 70
     1
102
RTVSPropertyOp17
 70
     1
102
RTVSPropertyOp18
 70
     1
102
RTVSPropertyOp19
 70
     1
102
RTVSPropertyOp20
 70
     1
102
RTVSPropertyOp21
 70
     1
102
RTVSPropertyOp22
 70
     1
102
RTVSPropertyOp23
 70
     1
102
RTVSPropertyOp24
 70
     1
102
RTVSPropertyOp25
 70
     1
102
RTVSPropertyOp26
 70
     1
102
RTVSPropertyOp27
 70
     1
  0
XRECORD
  5
4DA
102
{ACAD_REACTORS
330
4D9
102
}
330
4D9
100
AcDbXrecord
280
     1
102
RTVSPropertyOp0
 70
     1
102
RTVSPropertyOp1
 70
     1
102
RTVSPropertyOp2
 70
     1
102
RTVSPropertyOp3
 70
     1
102
RTVSPropertyOp4
 70
     1
102
RTVSPropertyOp5
 70
     1
102
RTVSPropertyOp6
 70
     1
102
RTVSPropertyOp7
 70
     1
102
RTVSPropertyOp8
 70
     1
102
RTVSPropertyOp9
 70
     1
102
RTVSPropertyOp10
 70
     1
102
RTVSPropertyOp11
 70
     1
102
RTVSPropertyOp12
 70
     1
102
RTVSPropertyOp13
 70
     1
102
RTVSPropertyOp14
 70
     1
102
RTVSPropertyOp15
 70
     1
102
RTVSPropertyOp16
 70
     1
102
RTVSPropertyOp17
 70
     1
102
RTVSPropertyOp18
 70
     1
102
RTVSPropertyOp19
 70
     1
102
RTVSPropertyOp20
 70
     1
102
RTVSPropertyOp21
 70
     1
102
RTVSPropertyOp22
 70
     1
102
RTVSPropertyOp23
 70
     1
102
RTVSPropertyOp24
 70
     1
102
RTVSPropertyOp25
 70
     1
102
RTVSPropertyOp26
 70
     1
102
RTVSPropertyOp27
 70
     1
  0
XRECORD
  5
4E2
102
{ACAD_REACTORS
330
4E1
102
}
330
4E1
100
AcDbXrecord
280
     1
102
RTVSPropertyOp0
 70
     1
102
RTVSPropertyOp1
 70
     1
102
RTVSPropertyOp2
 70
     1
102
RTVSPropertyOp3
 70
     1
102
RTVSPropertyOp4
 70
     1
102
RTVSPropertyOp5
 70
     1
102
RTVSPropertyOp6
 70
     1
102
RTVSPropertyOp7
 70
     1
102
RTVSPropertyOp8
 70
     1
102
RTVSPropertyOp9
 70
     1
102
RTVSPropertyOp10
 70
     1
102
RTVSPropertyOp11
 70
     1
102
RTVSPropertyOp12
 70
     1
102
RTVSPropertyOp13
 70
     1
102
RTVSPropertyOp14
 70
     1
102
RTVSPropertyOp15
 70
     1
102
RTVSPropertyOp16
 70
     1
102
RTVSPropertyOp17
 70
     1
102
RTVSPropertyOp18
 70
     1
102
RTVSPropertyOp19
 70
     1
102
RTVSPropertyOp20
 70
     1
102
RTVSPropertyOp21
 70
     1
102
RTVSPropertyOp22
 70
     1
102
RTVSPropertyOp23
 70
     1
102
RTVSPropertyOp24
 70
     1
102
RTVSPropertyOp25
 70
     1
102
RTVSPropertyOp26
 70
     1
102
RTVSPropertyOp27
 70
     1
  0
ENDSEC
  0
EOF
